Статистика раздачи
Размер:  1,45 GB   |    Зарегистрирован:  7 месяцев 28 дней   |    Скачан:  0 раз

Полного источника не было: Никогда

 
     
 
 

serzh ®

Пол:
Не указан
Стаж:
8 месяцев 8 дней
Сообщений:
384

Адская кухня
Paradise Alley

Страна: США
Жанр: драма
Год выпуска: 1978
Продолжительность: 01:48:55-Перевод: Профессиональный (многоголосый закадровый) МатчТВ
Субтитры: нет
Оригинальная аудиодорожка: нет-Режиссер: Сильвестр Сталлоне / Sylvester Stallone
В ролях: Сильвестр Сталлоне, Ли Каналито, Арманд Ассанте, Фрэнк МакРей, Энн Арчер, Кевин Конуэй, Терри Фанк, Джойс Ингаллс, Джо Спинелл, Эйми Экклес, Том Уэйтс, Фрэнк Сталлоне-Описание: Нью-Йорк, 1946 год. У трех братьев Карбони — Виктора, Ленни и Космо — одна единственная мечта в жизни: вырваться из самого бандитского района Нью-Йорка под названием «Адская кухня». Но для этого нужно разорвать круг беспросветной бедности, в которой они живут уже много лет. Предприимчивый Космо решает, что надежда заработать много денег все-таки есть. Он предлагает Виктору, самому сильному и спортивному из них, принять участие в серии матчей на рэстлинг-ринге…-Доп. информация: Озвучка на трекере появляется впервые
Все озвучки в этом месте без перевода: 01:23:04 - 01:23:45
За запись фильма - спасибо winston315
Сэмпл: 2минуты2сек-Качество видео: BDRip (спасибо kingsize87)
Формат видео: AVI
Видео: XVID, 704x384, 1,85:1, 23,976 кадра/сек, 1704 Кбит/сек
Аудио: AC-3, 48,0 КГц, 192 Кбит/сек, 2 канала (многоголосый МатчТВ)

MediaInfo

Общее
Полное имя : Адская кухня.1978.BDRip.avi
Формат : AVI
Формат/Информация : Audio Video Interleave
Размер файла : 1,45 Гбайт
Продолжительность : 1 ч. 48 м.
Общий поток : 1906 Кбит/сек
Название фильма : Адская кухня / Парадиз аллея / Paradise Alley (1978) BDRip
Режиссёр : sociolog_melvas
Жанр : драма
Программа кодирования : VirtualDubMod 1.10.5ru (build 2550/release)
Библиотека кодирования : VirtualDubMod build 2550/release
Авторское право : HQCLUB
Примечание : 18.05.2016
Видео
Идентификатор : 0
Формат : MPEG-4 Visual
Профиль формата : Advanced Simple@L5
Настройки формата : BVOP1 / Custom Matrix
Параметр BVOP формата : 1
Параметр QPel формата : Нет
Параметр GMC формата : Без точки перехода
Параметр матрицы формата : Выборочная
Идентификатор кодека : XVID
Идентификатор кодека/Подсказка : XviD
Продолжительность : 1 ч. 48 м.
Битрейт : 1704 Кбит/сек
Ширина : 704 пикселя
Высота : 384 пикселя
Соотношение сторон : 1,85:1
Частота кадров : 23,976 (24000/1001) кадра/сек
Цветовое пространство : YUV
Субдискретизация насыщенности : 4:2:0
Битовая глубина : 8 бит
Тип развёртки : Прогрессивная
Метод сжатия : С потерями
Бит/(Пиксели*Кадры) : 0.263
Размер потока : 1,30 Гбайт (89%)
Библиотека кодирования : XviD 65
Аудио
Идентификатор : 1
Формат : AC-3
Формат/Информация : Audio Coding 3
Коммерческое название : Dolby Digital
Идентификатор кодека : 2000
Продолжительность : 1 ч. 48 м.
Вид битрейта : Постоянный
Битрейт : 192 Кбит/сек
Каналы : 2 канала
Channel layout : L R
Частота : 48,0 КГц
Частота кадров : 31,250 кадров/сек (1536 SPF)
Битовая глубина : 16 бит
Метод сжатия : С потерями
Размер потока : 150 Мбайт (10%)
Выравнивание : Разделение по промежуткам
Продолжительность промежутка : 42 мс. (1,00 видеокадр)
Время предзагрузки промежутка : 500 мс.
Заголовок : многоголосый МатчТВ
ServiceKind/String : Complete Main

Скриншоты



[cybertorrent.net].t1394.torrent 
Торрент: Зарегистрирован [ 2019-03-23 16:40 ] · 9369BF93DC4F52CF41F08BDA3C4466D450C56196

Скачать .torrent

Скачать

15 KB

Статус: проверено
Скачан: 0 раз
Размер: 1,45 GB
terms.php
Профиль [ЛС]
Показать сообщения:    

Текущее время: 21-Ноя 01:12

Часовой пояс: UTC ± 0



Вы не можете начинать темы
Вы не можете отвечать на сообщения
Вы не можете редактировать свои сообщения
Вы не можете удалять свои сообщения
Вы не можете голосовать в опросах
Вы не можете прикреплять файлы к сообщениям
Вы можете скачивать файлы