Статистика раздачи
Размер:  2,28 GB   |    Зарегистрирован:  7 месяцев 29 дней   |    Скачан:  0 раз

Полного источника не было: Никогда

 
     
 
 

Гость ®

Пол:
Не указан

-Враг внутри / The Enemy Within-
Год выпуска: 2019
Страна: США
Жанр: драма
Продолжительность: ~ 43 мин.
Перевод:: Профессиональный (многоголосый закадровый) (Jaskier)-Режиссеры: Марисоль Торрес, Чарльз Бисон, Марк Пеллингтон
В ролях: Дженнифер Карпентер, Моррис Честнат, Джеймс Карпинелло, Кассандра Фриман, Раза Джеффри, Ной Бин, Келли Гарнер, Корал Пенья, Ноа Миллс и др.-Описание: Эрику Шепард — бывшего агента ЦРУ и изменницу родины — освобождают из тюрьмы. Вместе с агентом ФБР Уиллом Китоном она должна будет найти опасного преступника, который хорошо ей знаком.-Информационные ссылки: IMDb || Кинопоиск--Качество: WEB-DLRip
Формат: AVI (Сэмпл)
Видео: 720x400 (16:9), 23.976 fps, XviD build 50 ~1498 kbps avg, 0.22 bit/pixel
Аудио #1: 48 kHz, MPEG Layer 3, 2 ch, ~192.00 kbps avg (Rus)
Аудио #2: 48 kHz, MPEG Layer 3, 2 ch, ~192.00 kbps avg (Eng)
Субтитры: нет
Реклама: Отсутствует-Ссылка на предыдущие и альтернативные раздачи--
MIОбщее
Полное имя : D:\Видео\Сериалы\400p\The Enemy Within\The.Enemy.Within.S01E01.avi
Формат : AVI
Формат/Информация : Audio Video Interleave
Размер файла : 593 Мбайт
Продолжительность : 43 м. 42 с.
Общий поток : 1898 Кбит/сек
Программа кодирования : VirtualDubMod 1.5.10.2 (build 2540/release)
Библиотека кодирования : VirtualDubMod build 2540/release
Видео
Идентификатор : 0
Формат : MPEG-4 Visual
Профиль формата : Advanced Simple@L5
Настройки формата : BVOP1
Параметр BVOP формата : 1
Параметр QPel формата : Нет
Параметр GMC формата : Без точки перехода
Параметр матрицы формата : Default (H.263)
Идентификатор кодека : XVID
Идентификатор кодека/Подсказка : XviD
Продолжительность : 43 м. 42 с.
Битрейт : 1500 Кбит/сек
Ширина : 720 пикселей
Высота : 400 пикселей
Соотношение сторон : 16:9
Частота кадров : 23,976 (24000/1001) кадра/сек
Цветовое пространство : YUV
Субдискретизация насыщенности : 4:2:0
Битовая глубина : 8 бит
Тип развёртки : Прогрессивная
Метод сжатия : С потерями
Бит/(Пиксели*Кадры) : 0.217
Размер потока : 469 Мбайт (79%)
Библиотека кодирования : XviD 1.2.1 (UTC 2008-12-04)
Аудио #1
Идентификатор : 1
Формат : MPEG Audio
Версия формата : Version 1
Профиль формата : Layer 3
Настройки формата : Joint stereo / MS Stereo
Идентификатор кодека : 55
Идентификатор кодека/Подсказка : MP3
Продолжительность : 43 м. 42 с.
Вид битрейта : Постоянный
Битрейт : 192 Кбит/сек
Каналы : 2 канала
Частота : 48,0 КГц
Метод сжатия : С потерями
Размер потока : 60,0 Мбайт (10%)
Выравнивание : Соединение по промежуткам
Продолжительность промежутка : 42 мс. (1,00 видеокадр)
Время предзагрузки промежутка : 504 мс.
Аудио #2
Идентификатор : 2
Формат : MPEG Audio
Версия формата : Version 1
Профиль формата : Layer 3
Настройки формата : Joint stereo
Идентификатор кодека : 55
Идентификатор кодека/Подсказка : MP3
Продолжительность : 43 м. 42 с.
Вид битрейта : Постоянный
Битрейт : 192 Кбит/сек
Каналы : 2 канала
Частота : 48,0 КГц
Частота кадров : 41,667 кадра/сек (1152 SPF)
Метод сжатия : С потерями
Размер потока : 60,0 Мбайт (10%)
Выравнивание : Соединение по промежуткам
Продолжительность промежутка : 42 мс. (1,00 видеокадр)
Время предзагрузки промежутка : 504 мс.

Скриншоты

Внимание! Раздача ведётся путём добавления новых серий

При очередном добавлении новой серии, создаётся новый торрент. Для того, чтобы скачать новую серию сезона, Вам необходимо сделать следующее:
1. Удалить старый торрент (лишь торрент, серии удалять не нужно),
2. Скачать новый торрент-файл и запустить его. ОБЯЗАТЕЛЬНО при этом указать клиенту путь в старую папку, где уже находятся предыдущие серии.
3. Ваш клиент производит хеширование старой папки и будет докачивать только те серии и субтитры, которых у Вас ещё нет. Старые серии при этом не удаляются.
[cybertorrent.net].t1366.torrent 
Торрент: Зарегистрирован [ 2019-03-23 16:40 ] · EFB0C2367C40A3250E1C5E66BFF3F8D367667CF3

Скачать .torrent

Скачать

12 KB

Статус: проверено
Скачан: 0 раз
Размер: 2,28 GB
terms.php
Показать сообщения:    

Текущее время: 22-Ноя 08:00

Часовой пояс: UTC ± 0



Вы не можете начинать темы
Вы не можете отвечать на сообщения
Вы не можете редактировать свои сообщения
Вы не можете удалять свои сообщения
Вы не можете голосовать в опросах
Вы не можете прикреплять файлы к сообщениям
Вы можете скачивать файлы