Статистика раздачи
Размер:  4,2 GB   |    Зарегистрирован:  7 месяцев 23 дня   |    Скачан:  0 раз

Полного источника не было: Никогда

 
     
 
 

Гость ®

Пол:
Не указан

Роковой патруль | Doom Patrol- Год выпуска: 2019
Страна: США
Жанр: фантастика, боевик, драма, приключения
Продолжительность: ~ 00:55:00
Перевод: Любительский (многоголосый закадровый) TVShows--Режиссёр: Дермотт Даунс, Крис Мэнли, Салли Ричардсон-Уитфилд
В ролях: Дайан Герерро, Эйприл Боулби, Алан Тьюдик, Мэтт Бомер, Брендан Фрейзер, Тимоти Далтон, Райли Шэнэхэн, Мэттью Зук, Джоиван Уэйд, Кайл Расселл Клементс и др.-Описание: Иногда трагедии обрывают человеческие жизни, а иногда меняют их до неузнаваемости. Так произошло и с Клиффом Стилом, лихим раллистом, который попал в страшнейшую автокатастрофу. Весь мир поспешил счесть Стила мертвым, однако доктору Найлзу Колдеру удалось спасти мозг гонщика и пересадить его в «тело» робота. Когда Клифф пришел в сознание, он с удивлением обнаружил, что Колдер, он же Шеф, собрал под крышей своего дома целую команду таких же несчастных, как он. Вскоре у профессора, подарившего каждому из них вторую жизнь и суперспособности, появляются опасные враги. И вместо тихого отшельнического образа жизни пятеро уродцев получают возможность проявить свои силы на полную и защитить от всесильных злодеев Шефа, город и все живое...--
Качество: WEB-DLRip
Формат: AVI
Видео: XVID, 704x320, 23.976 fps, ~2000 kbps avg, ~0.38 bit/pixel
Аудио Rus: AC3, 48.0 KHz, 2 channels, ~192 kbps
Субтитры: нет
Реклама отсутствует!
Все раздачи сериала

MediaInfo

General
Complete name : G:\Роковой патруль (Сезон 1) TVShows\Doom.Patrol.S01E01.WEB-DLRip.RGzsRutracker.Celta88.avi
Format : AVI
Format/Info : Audio Video Interleave
File size : 922 MiB
Duration : 58 min 31 s
Overall bit rate : 2 201 kb/s
Writing application : VirtualDubMod 1.5.10.3 | www.virtualdub-fr.org || (build 2550/release)
Writing library : VirtualDubMod build 2550/release
Video
ID : 0
Format : MPEG-4 Visual
Format profile : Advanced Simple@L5
Format settings, BVOP : 1
Format settings, QPel : No
Format settings, GMC : No warppoints
Format settings, Matrix : Custom
Codec ID : XVID
Codec ID/Hint : XviD
Duration : 58 min 31 s
Bit rate : 2 000 kb/s
Width : 704 pixels
Height : 320 pixels
Display aspect ratio : 2.2:1
Frame rate : 23.976 (24000/1001) FPS
Color space : YUV
Chroma subsampling : 4:2:0
Bit depth : 8 bits
Scan type : Progressive
Compression mode : Lossy
Bits/(Pixel*Frame) : 0.370
Stream size : 837 MiB (91%)
Writing library : XviD 73
Audio
ID : 1
Format : AC-3
Format/Info : Audio Coding 3
Mode extension : CM (complete main)
Format settings, Endianness : Big
Codec ID : 2000
Duration : 58 min 31 s
Bit rate mode : Constant
Bit rate : 192 kb/s
Channel(s) : 2 channels
Channel positions : Front: L R
Sampling rate : 48.0 kHz
Frame rate : 31.250 FPS (1536 spf)
Bit depth : 16 bits
Compression mode : Lossy
Stream size : 80.4 MiB (9%)
Alignment : Split accross interleaves
Interleave, duration : 42 ms (1.00 video frame)
Interleave, preload duratio : 500 ms

Скриншоты

Внимание! Раздача ведётся путём добавления новых серий!

Внимание! Раздача ведётся путём добавления новых серий; при каждом добавлении создаётся новый торрент.
Чтобы начать докачку новой серии, пользователям необходимо сделать следующее:

1. Остановить скачивание.
2. Удалить старый торрент у себя из клиента (старые серии удалять не надо).
3. Скачать новый торрент и запустить его у себя в клиенте вместо старого, при этом указать клиенту путь в старую папку куда и должно происходить скачивание новых серий.

Ваш клиент при этом должен произвести хеширование (проверку) старой папки (если не производит сам - помогите ему сделать это), и будет докачивать только те серии которых у вас ещё нет. Старые серии при этом не удаляются, а продолжают раздаваться!
Eсли вы уже удалили старые серии, то предотвратить повторную закачку старых серий можно, отжав галочку в соответсвующих местах при запуске нового торрента.
Релиз группы:
[cybertorrent.net].t1365.torrent 
Торрент: Зарегистрирован [ 2019-03-23 16:40 ] · 460BAD6C20C86F350B55308991F0AC20AB6AE73B

Скачать .torrent

Скачать

22 KB

Статус: проверено
Скачан: 0 раз
Размер: 4,2 GB
terms.php
Показать сообщения:    

Текущее время: 15-Ноя 20:52

Часовой пояс: UTC ± 0



Вы не можете начинать темы
Вы не можете отвечать на сообщения
Вы не можете редактировать свои сообщения
Вы не можете удалять свои сообщения
Вы не можете голосовать в опросах
Вы не можете прикреплять файлы к сообщениям
Вы можете скачивать файлы