Статистика раздачи
Размер:  6,27 GB   |    Зарегистрирован:  8 месяцев 18 дней   |    Скачан:  0 раз

Полного источника не было: Никогда

 
     
 
 

Гость ®

Пол:
Не указан

Пожарная часть 19 / Station 19- Год выпуска: 2018
Страна: США
Жанр: боевик, триллер, драма, мелодрама
Продолжительность: ~00:43:00-Перевод: Профессиональный (многоголосый закадровый) | NewStudio-Режиссёры: Пэрис Барклай, Милан Чейлов, Тесса Блейк-В ролях: Джессика Ортиз, Джейсон Уинстон Джордж, Грэй Дэймон, Барретт Досс, Альберто Фрезза, Джей Хейден, Окьерете Онаодован, Даниэль Савре, Мигель Сандовал, Шандра Уилсон, Бретт Такер, Джоэли Фишер, Джакомо Джианниотти, Стерлинг Сулейман, Ванесса Марано, Борис Коджо, Келли МакКрири, Эллен Ро, Ребекка Филд, Трой Уинбуш, Дермот Малруни, Спрэг Грэйден, Джина Гальего и др.-Описание: Сериал рассказывает о работниках пожарной станции номер девятнадцать, что располагается в городе Сиэтл. В центре внимания оказывается Энди Эррера. Главная героиня этого сериала работает в своей профессии уже давно. К тому же она обладает некоторой властью, ведь является дочерью самого начальника станции. Характер у Энди весьма сильный: девушка знает, как держать себя в руках даже в самых сложных ситуациях. С такой боевой натурой справляются далеко не все. Новичок Бэн Уоррен многого насмотрелся в своей жизни, ведь когда-то работал анастезиологом в одной из крупнейших больниц Сиэтла. Ему приходится несладко с такой суровой коллегой. Однако рано или поздно связи между персонажами наладятся. История также захватывает рассказ о личной жизни бесстрашного лейтенанта Джека Гибсона, человека, который всю свою жизнь отдал любимому делу. Помимо привычных дел и рабочих забот главные герои задумываются о личной жизни. Энди Эррера влюблена в Райана Тэннера, человека, который служит в местной полиции. Главная героиня до сих пор скрывает свои чувства, выплескивая эмоции на работе. Ей приходится сражаться со стихией, а также быть достойным товарищем для своих коллег по работе. Удается, увы, не всегда.-[box=#aed8ff,#003465]Ссылка на предыдущие и альтернативные раздачи[/box]- -Качество: WEBRip (исх. WEBRip AMZN 1080p)
Контейнер: AVI
Видео: 720x400 (1.80:1), 23.976 fps, XviD build 50 ~2248 kbps avg, 0.33 bit/pixel
Аудио#1 Rus: 48 kHz, MPEG Layer 3, 2 ch, ~192.00 kbps avg | NewStudio
Аудио#2 Eng: 48 kHz, MPEG Layer 3, 2 ch, ~192.00 kbps avg
Субтитры: Русские (форсированные), английские (SDH)
Реклама: Отсутствует-

Релиз

Перевод: Юлия Мейер
Очистка от рекламы и изготовление рипов: ad3wal3
-

Список серий

01. Восстанавливаться некогда / No Recovery
02. То, что внутри / Under The Surface
03. Дом, за который можно держаться / Home To Hold Onto
04. Потери и находки / Lost And Found
05. Навреди… / Do a Little Harm…
06. Последний день жизни / Last Day On Earth
07. Выдержать испытание / Weather the Storm
08. Полная неудача / Crash and Burn
-

MediaInfo

General
Complete name : I:\Station.19.S02E01.WEBRip.XviD.Rus.Eng.NewStudio.avi
Format : AVI
Format/Info : Audio Video Interleave
File size : 801 MiB
Duration : 42 min 18 s
Overall bit rate : 2 647 kb/s
Writing application : VirtualDubMod 1.5.10.3 (build 2550/release)
Writing library : VirtualDubMod build 2550/release
Video
ID : 0
Format : MPEG-4 Visual
Format profile : Advanced Simple@L5
Format settings, BVOP : 1
Format settings, QPel : No
Format settings, GMC : No warppoints
Format settings, Matrix : Default (MPEG)
Codec ID : XVID
Codec ID/Hint : XviD
Duration : 42 min 18 s
Bit rate : 2 249 kb/s
Width : 720 pixels
Height : 400 pixels
Display aspect ratio : 16:9
Frame rate : 23.976 (24000/1001) FPS
Color space : YUV
Chroma subsampling : 4:2:0
Bit depth : 8 bits
Scan type : Progressive
Compression mode : Lossy
Bits/(Pixel*Frame) : 0.326
Stream size : 681 MiB (85%)
Writing library : XviD 1.2.1 (UTC 2008-12-04)
Audio #1
ID : 1
Format : MPEG Audio
Format version : Version 1
Format profile : Layer 3
Mode : Joint stereo
Mode extension : MS Stereo
Codec ID : 55
Codec ID/Hint : MP3
Duration : 42 min 18 s
Bit rate mode : Constant
Bit rate : 192 kb/s
Channel(s) : 2 channels
Sampling rate : 48.0 kHz
Compression mode : Lossy
Stream size : 58.1 MiB (7%)
Alignment : Aligned on interleaves
Interleave, duration : 42 ms (1.00 video frame)
Interleave, preload duratio : 504 ms
Writing library : LAME3.99r
Encoding settings : -m j -V 4 -q 0 -lowpass 18.6 -b 192
Audio #2
ID : 2
Format : MPEG Audio
Format version : Version 1
Format profile : Layer 3
Mode : Joint stereo
Mode extension : MS Stereo
Codec ID : 55
Codec ID/Hint : MP3
Duration : 42 min 18 s
Bit rate mode : Constant
Bit rate : 192 kb/s
Channel(s) : 2 channels
Sampling rate : 48.0 kHz
Compression mode : Lossy
Stream size : 58.1 MiB (7%)
Alignment : Aligned on interleaves
Interleave, duration : 42 ms (1.00 video frame)
Interleave, preload duratio : 504 ms
Writing library : LAME3.99r
Encoding settings : -m j -V 4 -q 0 -lowpass 18.6 -b 192
-

Скриншоты

[cybertorrent.net].t1354.torrent 
Торрент: Зарегистрирован [ 2019-03-23 16:40 ] · 3510378A1DCBA691B2FA1CB0D49DC97B5DC746F2

Скачать .torrent

Скачать

18 KB

Статус: проверено
Скачан: 0 раз
Размер: 6,27 GB
terms.php
Показать сообщения:    

Текущее время: 11-Дек 07:09

Часовой пояс: UTC ± 0



Вы не можете начинать темы
Вы не можете отвечать на сообщения
Вы не можете редактировать свои сообщения
Вы не можете удалять свои сообщения
Вы не можете голосовать в опросах
Вы не можете прикреплять файлы к сообщениям
Вы можете скачивать файлы