Статистика раздачи
Размер:  1,47 GB   |    Зарегистрирован:  7 месяцев 25 дней   |    Скачан:  0 раз

Полного источника не было: Никогда

 
     
 
 

serzh ®

Пол:
Не указан
Стаж:
8 месяцев 5 дней
Сообщений:
384

Джонни придет / Jonny kommt
Страна: Германия (ГДР)
Жанр: драма, семейный
Год выпуска: 1988
Продолжительность: 01:43:07
Перевод: Одноголосый закадровый Юрий Муравский
Субтитры: нет
Оригинальная аудиодорожка: немецкий
Режиссер: Рихард Энгель / Richard Engel
В ролях: Петра Келлинг, Йоахим Зибеншух, Себастьян Хаттоп, Бенжамин Буркхардт, Мариус Шёнефельд, Бенно Мит, Ханка Метова, Ирмгард Марцан

Описание: 12-летний Джонни живет в приюте. Отца нет, мать от него отказалась. У него появляется возможность попасть в семью местного врача. В семье трое детей: почти взрослая дочь и мальчики 11 и 5 лет. Но не все оказывается так просто. Во многом вина самого Джонни.
Доп. информация: Организация перевода - Minhers76.
Кинопоиск - IMDb
Sample
Качество видео: DVDRip
Формат видео: AVI
Видео: 688x528 (1.30:1), 25 fps, XviD build 73 ~1634 kbps avg, 0.18 bit/pixel
Аудио #1: Russian (AC3, 2 ch, 192 kbps, 16 bits, 48.0 KHz) - VO
Аудио #2: German (AC3, 2 ch, 192 kbps, 16 bits, 48.0 KHz) - оригинал

MediaInfo

General
Complete name : D:\Jonny Kommt 1988 DVDRip.avi
Format : AVI
Format/Info : Audio Video Interleave
File size : 1.47 GiB
Duration : 1 h 43 min
Overall bit rate : 2 034 kb/s
Writing application : VirtualDubMod 1.5.10.3 | www.virtualdub-fr.org || (build 2550/release)
Writing library : VirtualDubMod build 2550/release
Video
ID : 0
Format : MPEG-4 Visual
Format profile : Advanced Simple@L5
Format settings : BVOP1
Format settings, BVOP : 1
Format settings, QPel : No
Format settings, GMC : No warppoints
Format settings, Matrix : Default (MPEG)
Codec ID : XVID
Codec ID/Hint : XviD
Duration : 1 h 43 min
Bit rate : 1 636 kb/s
Width : 688 pixels
Height : 528 pixels
Display aspect ratio : 4:3
Frame rate : 25.000 FPS
Color space : YUV
Chroma subsampling : 4:2:0
Bit depth : 8 bits
Scan type : Progressive
Compression mode : Lossy
Bits/(Pixel*Frame) : 0.180
Stream size : 1.18 GiB (80%)
Writing library : XviD 73
Audio #1
ID : 1
Format : AC-3
Format/Info : Audio Coding 3
Codec ID : 2000
Duration : 1 h 43 min
Bit rate mode : Constant
Bit rate : 192 kb/s
Channel(s) : 2 channels
Channel positions : Front: L R
Sampling rate : 48.0 kHz
Frame rate : 31.250 FPS (1536 SPF)
Bit depth : 16 bits
Compression mode : Lossy
Stream size : 142 MiB (9%)
Alignment : Split accross interleaves
Interleave, duration : 40 ms (1.00 video frame)
Interleave, preload duratio : 500 ms
Service kind : Complete Main
Audio #2
ID : 2
Format : AC-3
Format/Info : Audio Coding 3
Codec ID : 2000
Duration : 1 h 43 min
Bit rate mode : Constant
Bit rate : 192 kb/s
Channel(s) : 2 channels
Channel positions : Front: L R
Sampling rate : 48.0 kHz
Frame rate : 31.250 FPS (1536 SPF)
Bit depth : 16 bits
Compression mode : Lossy
Stream size : 142 MiB (9%)
Alignment : Split accross interleaves
Interleave, duration : 40 ms (1.00 video frame)
Interleave, preload duratio : 500 ms
Service kind : Complete Main

Скриншоты



[cybertorrent.net].t1345.torrent 
Торрент: Зарегистрирован [ 2019-03-22 16:11 ] · E704FB46DB708BD4608A8F7EDC12D7914A871CD1

Скачать .torrent

Скачать

15 KB

Статус: проверено
Скачан: 0 раз
Размер: 1,47 GB
terms.php
Профиль ЛС
Показать сообщения:    

Текущее время: 17-Ноя 16:01

Часовой пояс: UTC ± 0



Вы не можете начинать темы
Вы не можете отвечать на сообщения
Вы не можете редактировать свои сообщения
Вы не можете удалять свои сообщения
Вы не можете голосовать в опросах
Вы не можете прикреплять файлы к сообщениям
Вы можете скачивать файлы