Статистика раздачи
Размер:  1,36 GB   |    Зарегистрирован:  8 месяцев 23 дня   |    Скачан:  0 раз

Полного источника не было: Никогда

 
     
 
 

serzh ®

Пол:
Не указан
Стаж:
9 месяцев 2 дня
Сообщений:
384

Когда ты станешь взрослым, дорогой Адам / Когда ты вырастешь, дорогой Адам / Wenn du groß bist, lieber Adam
Страна: Германия (ГДР)
Жанр: фэнтези, драма
Год выпуска: 1965
Продолжительность: 01:10:58
Перевод: Одноголосый закадровый Александр Харченко
Субтитры: русские (Михаил Васильев), английские
Оригинальная аудиодорожка: немецкий
Режиссер: Эгон Гюнтер / Egon Günther
В ролях: Стефан Янке, Джерри Вольф, Манфред Круг, Дейси Гранадос, Рольф Рёмер, Ханс Ансельм Пертен, Вольфганг Греезе, Гюнтер Зимон, Матильде Данеггер, Фред Дельмаре

Описание: В руки Адама попадает секретное изобретение: фонарь, изобличающий ложь. Врун, на которого упадет свет фонаря, поднимается в воздух.
Фильм был задуман как политическая сатира, замаскированная под детскую сказку. Когда была отснята почти половина материала, цензура запретила производство. Долгое время картина считалась утраченной. В начале 1990-х режиссер нашел в архиве пленки с отснятыми сценами и смонтировал из них данную версию. Недостающие сцены заменены титрами поясняющими происходящее.

Доп. информация: перевод - Михаил Васильев, предоставление DVD5 - Diablo, сведение звука - Нордер, организация перевода и озвучания - sergeyk888, организация проекта - serega.
Кинопоиск - IMDb
Sample
Качество видео: DVDRip
Формат видео: AVI
Видео: 720x304 (2.37:1), 25 fps, XviD build 73 ~2348 kbps avg, 0.43 bit/pixel
Аудио #1: Russian (AC3, 2 ch, 192 kbps, 16 bits, 48.0 KHz) - VO
Аудио #2: German (AC3, 2 ch, 192 kbps, 16 bits, 48.0 KHz) - оригинал
Формат субтитров: softsub (SRT)

MediaInfo

General
Complete name : D:\Wenn du gross bist, lieber Adam 1965 DVDRip\Wenn du gross bist, lieber Adam 1965 DVDRip.avi
Format : AVI
Format/Info : Audio Video Interleave
File size : 1.36 GiB
Duration : 1 h 10 min
Overall bit rate : 2 748 kb/s
Writing application : VirtualDubMod 1.5.10.3 | www.virtualdub-fr.org || (build 2550/release)
Writing library : VirtualDubMod build 2550/release
Video
ID : 0
Format : MPEG-4 Visual
Format profile : Advanced Simple@L5
Format settings : BVOP1
Format settings, BVOP : 1
Format settings, QPel : No
Format settings, GMC : No warppoints
Format settings, Matrix : Default (MPEG)
Codec ID : XVID
Codec ID/Hint : XviD
Duration : 1 h 10 min
Bit rate : 2 350 kb/s
Width : 720 pixels
Height : 304 pixels
Display aspect ratio : 2.35:1
Frame rate : 25.000 FPS
Color space : YUV
Chroma subsampling : 4:2:0
Bit depth : 8 bits
Scan type : Progressive
Compression mode : Lossy
Bits/(Pixel*Frame) : 0.429
Stream size : 1.16 GiB (85%)
Writing library : XviD 73
Audio #1
ID : 1
Format : AC-3
Format/Info : Audio Coding 3
Codec ID : 2000
Duration : 1 h 10 min
Bit rate mode : Constant
Bit rate : 192 kb/s
Channel(s) : 2 channels
Channel positions : Front: L R
Sampling rate : 48.0 kHz
Frame rate : 31.250 FPS (1536 SPF)
Bit depth : 16 bits
Compression mode : Lossy
Stream size : 97.5 MiB (7%)
Alignment : Split accross interleaves
Interleave, duration : 40 ms (1.00 video frame)
Interleave, preload duratio : 500 ms
Service kind : Complete Main
Audio #2
ID : 2
Format : AC-3
Format/Info : Audio Coding 3
Codec ID : 2000
Duration : 1 h 10 min
Bit rate mode : Constant
Bit rate : 192 kb/s
Channel(s) : 2 channels
Channel positions : Front: L R
Sampling rate : 48.0 kHz
Frame rate : 31.250 FPS (1536 SPF)
Bit depth : 16 bits
Compression mode : Lossy
Stream size : 97.5 MiB (7%)
Alignment : Split accross interleaves
Interleave, duration : 40 ms (1.00 video frame)
Interleave, preload duratio : 500 ms
Service kind : Complete Main

Скриншоты



[cybertorrent.net].t1344.torrent 
Торрент: Зарегистрирован [ 2019-03-22 16:11 ] · 13EEA5F477BAFEFF8CD22CC8B0F1B20D456F4F93

Скачать .torrent

Скачать

14 KB

Статус: проверено
Скачан: 0 раз
Размер: 1,36 GB
terms.php
Профиль [ЛС]
Показать сообщения:    

Текущее время: 14-Дек 22:25

Часовой пояс: UTC ± 0



Вы не можете начинать темы
Вы не можете отвечать на сообщения
Вы не можете редактировать свои сообщения
Вы не можете удалять свои сообщения
Вы не можете голосовать в опросах
Вы не можете прикреплять файлы к сообщениям
Вы можете скачивать файлы