Статистика раздачи
Размер:  746 MB   |    Зарегистрирован:  6 месяцев 23 дня   |    Скачан:  0 раз

Полного источника не было: Никогда

   
 

Гость ®

Пол:
Не указан

Бедные родственники
Год выпуска: 2005
Страна: Россия, Франция
Жанр: трагикомедия
Продолжительность: 01:46:38.160 (159954 frames)
Субтитры: нет
Режиссер: Павел Лунгин
В ролях: Константин Хабенский, Леонид Каневский, Сергей Гармаш, Наталья Коляканова, Эстер Горентен, Отто Таузиг, Миглен Мирчев, Грегуар Лепренс-Ринге, Марина Голуб, Даниил Спиваковский, Александр Ильин, Петр Солдатов, Елена Галибина, Евгения Дмитриева, Константин Воробьёв, Михаил Парыгин, Марианна Шульц, Владимир Сальников, Филипп Иванченко, Игорь Жуков, Екатерина Кибовская, Екатерина Барымова, Варвара Никитина
Описание: Действие фильма происходит в наши дни в маленьком южном городке, на территории бывшего СССР. Главный герой — Эдик Летов — помогает людям разыскивать родственников. Находит он их в Канаде, Израиле, Швейцарии. Для Эдика это — бизнес, и бизнес безотказный. Если настоящие родственники не находятся, Эдик организует "замену". И вроде всё в его маленькой фирме идет хорошо. Но так как "заменяющие" - люди одинокие, то на своих зарубежных гостей они изливают столько любви и тепла, что те и подумать не могут о подмене — и проникаются ответным чувством…
Качество: WEBRip
Формат: AVI
Видео кодек: XviD
Аудио кодек: МР3
Видео: 688x384 (1.79:1), 25 fps, XviD build 73 ~839 kbps avg, 0.13 bit/pixel
Аудио: 48 kHz, MPEG Layer 3, 2 ch, ~128.00 kbps avg

Медиаинфо

General
Complete name : E:\004 Мои раздачи\Бедные родственники 745\bednye_rodstvenniki_745_by_bm11.avi
Format : AVI
Format/Info : Audio Video Interleave
File size : 746 MiB
Duration : 1h 46mn
Overall bit rate : 977 Kbps
Director : bm11
Writing application : VirtualDubMod 1.5.10.3 | www.virtualdub-fr.org || (build 2550/release)
Video
ID : 0
Format : MPEG-4 Visual
Format profile : Advanced Simple@L5
Format settings, BVOP : 1
Format settings, QPel : No
Format settings, GMC : No warppoints
Format settings, Matrix : Custom
Codec ID : XVID
Codec ID/Hint : XviD
Duration : 1h 46mn
Bit rate : 840 Kbps
Width : 688 pixels
Height : 384 pixels
Display aspect ratio : 16:9
Frame rate : 25.000 fps
Color space : YUV
Chroma subsampling : 4:2:0
Bit depth : 8 bits
Scan type : Progressive
Compression mode : Lossy
Bits/(Pixel*Frame) : 0.127
Stream size : 640 MiB (86%)
Writing library : XviD 73
Audio
ID : 1
Format : MPEG Audio
Format version : Version 1
Format profile : Layer 3
Codec ID : 55
Codec ID/Hint : MP3
Duration : 1h 46mn
Bit rate mode : Constant
Bit rate : 128 Kbps
Channel(s) : 2 channels
Sampling rate : 48.0 KHz
Compression mode : Lossy
Stream size : 97.6 MiB (13%)
Alignment : Aligned on interleaves
Interleave, duration : 40 ms (1.00 video frame)
Interleave, preload duratio : 504 ms
Writing library : LAME3.99r
Encoding settings : -m s -V 4 -q 2 -lowpass 17 -b 128
[cybertorrent.net].t1340.torrent 
Торрент: Зарегистрирован [ 2019-03-22 16:11 ] · 79EA4107D3307301E70327DFAECF668DF0EAE98C

Скачать .torrent

Скачать

15 KB

Статус: проверено
Скачан: 0 раз
Размер: 746 MB
terms.php
Показать сообщения:    

Текущее время: 15-Окт 06:08

Часовой пояс: UTC ± 0



Вы не можете начинать темы
Вы не можете отвечать на сообщения
Вы не можете редактировать свои сообщения
Вы не можете удалять свои сообщения
Вы не можете голосовать в опросах
Вы не можете прикреплять файлы к сообщениям
Вы можете скачивать файлы