MAGNAT ®

Пол:
Мужской
Стаж:
1 год
Сообщений:
4495

Софья Перовская
Жанр: драма, исторический фильм
Год выпуска: 1967
Продолжительность: 1:46:49
Режиссёр: Лео Арнштам
В ролях: Александра Назарова, Виктор Тарасов, Борис Хмельницкий, Георгий Тараторкин, Александр Лукьянов, Владимир Колокольцев, Екатерина Райкина, Тамара Абросимова, Кира Головко, Григорий Кириллов, Владислав Стржельчик, Ефим Копелян, Борис Бибиков, Алексей Головин, Светлана Коркошко, Юрий Родионов
Описание: В основе сюжета - биография Софьи Перовской (1853-1881), члена Исполнительного комитета "Народной воли", которая была казнена за организацию убийства императора Александра II.
Качество видео: DVB
Формат видео: MKV
Видео: MPEG4 AVC 720x576 (16:9) 25,000 кадров/сек 1142 Кбит/сек
Аудио: MPEG1 Layer 2 48,0 КГц 2 канала 160 Кбит/сек Русский

MediaInfo

Общее
Уникальный идентификатор : 219550785456227278145541939566866455419 (0xA52BF175B6347085FE3BE4790131DB7B)
Полное имя : M:\Torrents\СВОИ\Софья Перовская.mkv
Формат : Matroska
Версия формата : Version 2
Размер файла : 1015 Мбайт
Продолжительность : 1 ч. 46 м.
Общий поток : 1328 Кбит/сек
Программа кодирования : Lavf52.64.2
Библиотека кодирования : Lavf52.64.2
Видео
Идентификатор : 1
Формат : AVC
Формат/Информация : Advanced Video Codec
Профиль формата : High@L3
Настройки формата : CABAC / 4 Ref Frames
Параметр CABAC формата : Да
Параметр RefFrames формата : 4 кадра
Идентификатор кодека : V_MPEG4/ISO/AVC
Продолжительность : 1 ч. 46 м.
Битрейт : 1142 Кбит/сек
Ширина : 720 пикселей
Высота : 576 пикселей
Соотношение сторон : 16:9
Соотношение сторон в оригинале : 16:9
Режим частоты кадров : Постоянный
Частота кадров : 25,000 кадров/сек
Стандарт вещания : Component
Цветовое пространство : YUV
Субдискретизация насыщенности : 4:2:0
Битовая глубина : 8 бит
Тип развёртки : Чересстрочная
Метод сохранения типа развёртки : Раздельные поля
Порядок развёртки : Верхнее поле первое
Бит/(Пиксели*Кадры) : 0.110
Размер потока : 872 Мбайт (86%)
Default : Да
Forced : Нет
Цветовой диапазон : Limited
Основные цвета : BT.601 PAL
Характеристики трансфера : BT.470 System B/G
Коэффициенты матрицы : BT.470 System B/G
Аудио
Идентификатор : 2
Формат : MPEG Audio
Версия формата : Version 1
Профиль формата : Layer 2
Идентификатор кодека : A_MPEG/L2
Идентификатор кодека/Подсказка : MP2
Продолжительность : 1 ч. 46 м.
Вид битрейта : Постоянный
Битрейт : 160 Кбит/сек
Каналы : 2 канала
Частота : 48,0 КГц
Метод сжатия : С потерями
Размер потока : 122 Мбайт (12%)
Язык : Russian
Default : Да
Forced : Нет

Скриншоты


Профиль [ЛС]
Показать сообщения:    

Текущее время: 06-Апр 07:10

Часовой пояс: UTC ± 0



Вы не можете начинать темы
Вы не можете отвечать на сообщения
Вы не можете редактировать свои сообщения
Вы не можете удалять свои сообщения
Вы не можете голосовать в опросах
Вы не можете прикреплять файлы к сообщениям
Вы не можете скачивать файлы