MAGNAT ®

Пол:
Мужской
Стаж:
1 год
Сообщений:
4495

Если позовет товарищ
Жанр: Мелодрама
Год выпуска: 1963
Продолжительность: 1:30:59
Режиссёр: Александр Иванов
В ролях: Андрей Хлебников, Виктор Ткаченко, Наталья Малявина, Виктор Бирцев, Любовь Малиновская, Георгий Тейх, Евгения Лосакевич, Василий Минин, Евгений Соляков
Описание: По рассказу Виктора Конецкого.
Еще в военно-морском училище родилась дружба Шаталова и "Мани" — так шутливо прозвали курсанты Алексея. По-разному сложилась их жизнь. “Маня” становится командиром подводной лодки. Шаталов, после проявленного преступного легкомыслия, служит на берегу. Кадровый морской офицер, он мучается в создавшейся ситуации. Неожиданно из далекого Курамоя приходит телеграмма от "Мани" — друг зовет его.
Доп. информация: Фильм изначально залит на Ютуб, на аккаунт Gav Kotov, качество неважнецкое, наверное оцифровывалась старая VHS
https://www.youtube.com/watch?v=2JMdpKLpTWs
Семпл: https://yadi.sk/i/HwPTVdsWrl55QQ
Качество видео: VHSRip-AVC
Формат видео: MP4
Видео: 640х480 (4:3), AVC, 316 kbps
Аудио: AAC LC, 2 ch, 44.1 kHz, 128 kbps

MediaInfo

Общее
Полное имя : C:\Users\Mikhail Podolski\Videos\4K Video Downloader\Если позовет товарищ.mp4
Формат : MPEG-4
Профиль формата : Base Media
Идентификатор кодека : isom (isom/iso2/avc1/mp41)
Размер файла : 293 Мбайт
Продолжительность : 1 ч. 30 м.
Общий поток : 450 Кбит/сек
Программа кодирования : Lavf58.20.100
Видео
Идентификатор : 1
Формат : AVC
Формат/Информация : Advanced Video Codec
Профиль формата : Main@L3
Настройки формата : CABAC / 3 Ref Frames
Параметр CABAC формата : Да
Параметр RefFrames формата : 3 кадра
Идентификатор кодека : avc1
Идентификатор кодека/Информация : Advanced Video Coding
Продолжительность : 1 ч. 30 м.
Duration_FirstFrame : -40 мс.
Битрейт : 316 Кбит/сек
Ширина : 640 пикселей
Высота : 480 пикселей
Соотношение сторон : 4:3
Режим частоты кадров : Переменный
Частота кадров : 25,000 кадров/сек
Минимальная частота кадров : 25,000 кадров/сек
Максимальная частота кадров : 25,014 кадров/сек
Цветовое пространство : YUV
Субдискретизация насыщенности : 4:2:0
Битовая глубина : 8 бит
Тип развёртки : Прогрессивная
Бит/(Пиксели*Кадры) : 0.041
Размер потока : 206 Мбайт (70%)
Библиотека кодирования : x264 core 155 r2901 7d0ff22
Цветовой диапазон : Limited
Основные цвета : BT.601 PAL
Коэффициенты матрицы : BT.470 System B/G
Codec configuration box : avcC
Аудио
Идентификатор : 2
Формат : AAC LC
Формат/Информация : Advanced Audio Codec Low Complexity
Идентификатор кодека : mp4a-40-2
Продолжительность : 1 ч. 30 м.
Вид битрейта : Постоянный
Битрейт : 128 Кбит/сек
Каналы : 2 канала
ChannelLayout : L R
Частота : 44,1 КГц
Частота кадров : 43,066 кадра/сек (1024 SPF)
Метод сжатия : С потерями
Размер потока : 83,3 Мбайт (28%)
Default : Да
AlternateGroup/String : 1

Скриншоты




Профиль [ЛС]
Показать сообщения:    

Текущее время: 06-Апр 07:53

Часовой пояс: UTC ± 0



Вы не можете начинать темы
Вы не можете отвечать на сообщения
Вы не можете редактировать свои сообщения
Вы не можете удалять свои сообщения
Вы не можете голосовать в опросах
Вы не можете прикреплять файлы к сообщениям
Вы не можете скачивать файлы