Статистика раздачи
Размер:  1,45 GB   |    Зарегистрирован:  13 дней   |    Скачан:  0 раз
DL-List: Нет

Полного источника не было: Никогда

 
     
 
 

MAGNAT ®

Пол:
Мужской
Стаж:
1 год
Сообщений:
4495

Соседские мальчишки / Парни рядом с тобой / Ребята как все / Они жили по-соседству / The Boys Next Door
Страна: США
Жанр: триллер, криминал
Год выпуска: 1985
Продолжительность: 01:30:54
Перевод: Авторский (одноголосый закадровый) Алексей Михалев
Субтитры: нет
Оригинальная аудиодорожка: Английский
Режиссер: Пенелопа Сфирис / Penelope Spheeris
В ролях: Максвелл Колфилд, Чарли Шин, Патти Д’Арбанвиль, Кристофер Макдональд, Хэнк Гаррет, Пол Дансер, Ричард Пачорек, Леса Ли, Кеннет Кортлэнд
Описание: Два друга, Рой и Бо, никогда и ничем не выделялись среди своих сверстников. Про них можно было сказать: ребята как все. После окончания колледжа друзья решили на выходные отправиться в Лос-Анджелес. Неожиданно их путешествие превратилось в кровавый кошмар. Рой и Бо совершают жестокое убийство, которое приводит в ужас всю страну. Так что же толкнуло их на этот страшный поступок? Какие демоны пробудились в их душах и превратили тихих и спокойных ребят в кровавых и безжалостных убийц? Быть может, внутри каждого из нас живет убийца….
Качество видео: BDRip
Формат видео: AVI
Видео: XviD 73, 720x384, (1,85:1), 23,976 fps, 1829 Кбит/с, 8 бит, 0.28 bit/pixel
Аудио: Русский (АС3, 2 ch (Front: L R), 48,0 KHz, 224 Kbps) Алексей Михалев
Аудио 2: Английский (АС3, 2 ch (Front: L R), 48,0 KHz, 224 Kbps) Оригинал

MediaInfo

Общее
Полное имя : D:\Фильмы на трекер\Соседские мальчишки (триллер, криминал 1985 год).avi
Формат : AVI
Формат/Информация : Audio Video Interleave
Размер файла : 1,45 Гбайт
Продолжительность : 1 ч. 30 м.
Общий поток : 2291 Кбит/сек
Программа кодирования : VirtualDubMod 1.5.10.2 (build 2540/release)
Библиотека кодирования : VirtualDubMod build 2540/release
Видео
Идентификатор : 0
Формат : MPEG-4 Visual
Профиль формата : Advanced Simple@L5
Параметр BVOP формата : 2
Параметр QPel формата : Нет
Параметр GMC формата : Без точки перехода
Параметр матрицы формата : Выборочная
Идентификатор кодека : XVID
Идентификатор кодека/Подсказка : XviD
Продолжительность : 1 ч. 30 м.
Битрейт : 1829 Кбит/сек
Ширина : 720 пикселей
Высота : 384 пикселя
Соотношение сторон : 1,85:1
Частота кадров : 23,976 (23976/1000) кадра/сек
Цветовое пространство : YUV
Субдискретизация насыщенности : 4:2:0
Битовая глубина : 8 бит
Тип развёртки : Прогрессивная
Метод сжатия : С потерями
Бит/(Пиксели*Кадры) : 0.276
Размер потока : 1,16 Гбайт (80%)
Библиотека кодирования : XviD 73
Аудио #1
Идентификатор : 1
Формат : AC-3
Формат/Информация : Audio Coding 3
Расширение режима : CM (complete main)
Параметр Endianness формата : Big
Идентификатор кодека : 2000
Продолжительность : 1 ч. 30 м.
Вид битрейта : Постоянный
Битрейт : 224 Кбит/сек
Каналы : 2 канала
Расположение каналов : Front: L R
Частота : 48,0 КГц
Частота кадров : 31,250 кадров/сек (1536 spf)
Метод сжатия : С потерями
Размер потока : 146 Мбайт (10%)
Выравнивание : Разделение по промежуткам
Продолжительность промежутка : 42 мс. (1,00 видеокадр)
Время предзагрузки промежутка : 500 мс.
Аудио #2
Идентификатор : 2
Формат : AC-3
Формат/Информация : Audio Coding 3
Расширение режима : CM (complete main)
Параметр Endianness формата : Big
Идентификатор кодека : 2000
Продолжительность : 1 ч. 30 м.
Вид битрейта : Постоянный
Битрейт : 224 Кбит/сек
Каналы : 2 канала
Расположение каналов : Front: L R
Частота : 48,0 КГц
Частота кадров : 31,250 кадров/сек (1536 spf)
Метод сжатия : С потерями
Размер потока : 146 Мбайт (10%)
Выравнивание : Разделение по промежуткам
Продолжительность промежутка : 42 мс. (1,00 видеокадр)
Время предзагрузки промежутка : 500 мс.

Скриншот c названием фильма

Скриншоты

[cybertorrent.net].t13306.torrent 
Торрент: Зарегистрирован [ 2020-03-23 19:17 ] · 3B573B24D12B53D8E2018883786CB942B752D749

Скачать .torrent

Скачать

15 KB

Статус: проверено
Скачан: 0 раз
Размер: 1,45 GB  ·  Тип торрента
terms.php
Профиль [ЛС]
Показать сообщения:    

Текущее время: 06-Апр 10:09

Часовой пояс: UTC ± 0



Вы не можете начинать темы
Вы не можете отвечать на сообщения
Вы не можете редактировать свои сообщения
Вы не можете удалять свои сообщения
Вы не можете голосовать в опросах
Вы не можете прикреплять файлы к сообщениям
Вы можете скачивать файлы