MAGNAT ®

Пол:
Мужской
Стаж:
1 год
Сообщений:
4495

Багровая мята / Peppermint- Год выпуска: 2018
Страна: Гонконг, США
Студия: Huayi Brothers, Lakeshore Entertainment, STXfilms
Жанр: боевик, триллер, драма
Продолжительность: 01:42:02
Перевод: Профессиональный (дублированный)
Субтитры: нет-Режиссер: Пьер Морель / Pierre Morel-В ролях: Дженнифер Гарнер, Джон Галлахер мл., Джон Ортис, Хуан Пабло Раба, Энни Илонзе, Джефф Хефнер, Кэйли Флеминг, Эдди Шин, Метод Мэн, Тайсон Риттер.-Описание: Когда система закрывает глаза на убийство ее семьи, она решает вершить справедливость сама: очистить город от преступников и продажных полицейских, чтобы отомстить за любимых. Ведь месть — это блюдо, которое подают холодным. Холодным, как мороженое со вкусом мяты, которое так любила ее единственная дочь.-Доп. информация: Фильм Багровая мята явит зрителям новый боевик от знаменитого Пьера Мореля (Заложница, Из Парижа с любовью), рассказывающий историю мести матери за убийство своих близких. Сценарий картины написал Чад Ст. Джон, ранее известный по экшну Падение Лондона и по любительской короткометражке "Каратель: Грязная стирка". История поднимет вопросы бездействия полиции и продажности адвокатов, помимо проблем преступности, а также представит зрителям по-настоящему мужественную главную героиню, идущую к своей цели до конца.-Качество видео: HDRip
Формат видео: AVI | Sample
Видео: 688x288 (2.40:1), 23.976 fps, XviD build 73 ~887 kbps avg, 0.187 bit/pixel
Аудио: 48 kHz, MPEG Layer 3, 2 ch, ~128.00 kbps avg | RUS

Инфо

Format : AVI
Format/Info : Audio Video Interleave
File size : 745 MiB
Duration : 1 h 42 min
Overall bit rate : 1 021 kb/s
Video
ID : 0
Format : MPEG-4 Visual
Format profile : Advanced Simple@L5
Format settings : BVOP1 / Custom Matrix
Format settings, BVOP : 1
Format settings, QPel : No
Format settings, GMC : No warppoints
Format settings, Matrix : Custom
Codec ID : XVID
Codec ID/Hint : XviD
Duration : 1 h 42 min
Bit rate : 887 kb/s
Width : 688 pixels
Height : 288 pixels
Display aspect ratio : 2.40:1
Frame rate : 23.976 (24000/1001) FPS
Color space : YUV
Chroma subsampling : 4:2:0
Bit depth : 8 bits
Scan type : Progressive
Compression mode : Lossy
Bits/(Pixel*Frame) : 0.187
Stream size : 647 MiB (87%)
Writing library : XviD 73
Audio
ID : 1
Format : MPEG Audio
Format version : Version 1
Format profile : Layer 3
Codec ID : 55
Codec ID/Hint : MP3
Duration : 1 h 42 min
Bit rate mode : Constant
Bit rate : 128 kb/s
Channel(s) : 2 channels
Sampling rate : 48.0 kHz
Frame rate : 41.667 FPS (1152 SPF)
Compression mode : Lossy
Stream size : 93.4 MiB (13%)
Alignment : Aligned on interleaves
Interleave, duration : 167 ms (4.00 video frames)
Interleave, preload duratio : 216 ms
Writing library : LAME3.99r
Encoding settings : -m s -V 4 -q 2 -lowpass 17 -b 128
Профиль [ЛС]
Показать сообщения:    

Текущее время: 06-Апр 08:32

Часовой пояс: UTC ± 0



Вы не можете начинать темы
Вы не можете отвечать на сообщения
Вы не можете редактировать свои сообщения
Вы не можете удалять свои сообщения
Вы не можете голосовать в опросах
Вы не можете прикреплять файлы к сообщениям
Вы не можете скачивать файлы