Статистика раздачи
Размер:  746 MB   |    Зарегистрирован:  13 дней   |    Скачан:  0 раз
DL-List: Нет

Полного источника не было: Никогда

 
     
 
 

MAGNAT ®

Пол:
Мужской
Стаж:
1 год
Сообщений:
4495

Собачья жизнь 2 / A Dog's Journey- Год выпуска: 2019
Страна: США, Китай, Гонконг, Индия
Студия: DreamWorks, Walden Media, Amblin Entertainment
Жанр: фэнтези, драма, комедия, приключения, семейный
Продолжительность: 01:48:39
Перевод: Профессиональный (дублированный)
Субтитры: русские (форсированные)-Режиссер: Гейл Манкусо / Gail Mancuso-В ролях: Дэннис Куэйд, Эбби Райдер Фортсон, Бетти Гилпин, Кэтрин Прескотт, Марг Хельгенбергер, Джош Гэд, Джейк Мэнли, Даниэла Барбоза, Йен Чен, Генри Лау, Эмма Фольк, Джонни Галэки.-Описание: Главного героя зовут Бэйли, он любит бекон и своего человека Итана. Они прожили вместе много счастливых лет, и вот настала пора прощаться. Но разве он может уйти, когда другу так нужна помощь?
Ради Итана он готов на все… даже если в одной из жизней ему придётся стать девчонкой.-Доп. информация: «Собачья жизнь 2» (англ. A Dog's Journey) — американский семейный фильм режиссёра Гейл Манкусо, который основан на романе Брюса Кэмерона «Путешествие хорошего пса», а также является сиквелом фильма «Собачья жизнь».-Качество видео: BDRip
Формат видео: AVI | Sample
Видео: 688x288 (2.40:1), 23.976 fps, XviD build 73 ~826 kbps avg, 0.174 bit/pixel
Аудио: 48 kHz, MPEG Layer 3, 2 ch, ~128.00 kbps avg | RUS

Инфо

Format : AVI
Format/Info : Audio Video Interleave
File size : 746 MiB
Duration : 1 h 48 min
Overall bit rate : 960 kb/s
Video
ID : 0
Format : MPEG-4 Visual
Format profile : Advanced Simple@L5
Format settings : BVOP1 / Custom Matrix
Format settings, BVOP : 1
Format settings, QPel : No
Format settings, GMC : No warppoints
Format settings, Matrix : Custom
Codec ID : XVID
Codec ID/Hint : XviD
Duration : 1 h 48 min
Bit rate : 826 kb/s
Width : 688 pixels
Height : 288 pixels
Display aspect ratio : 2.40:1
Frame rate : 23.976 (24000/1001) FPS
Color space : YUV
Chroma subsampling : 4:2:0
Bit depth : 8 bits
Scan type : Progressive
Compression mode : Lossy
Bits/(Pixel*Frame) : 0.174
Stream size : 642 MiB (86%)
Writing library : XviD 73
Audio
ID : 1
Format : MPEG Audio
Format version : Version 1
Format profile : Layer 3
Codec ID : 55
Codec ID/Hint : MP3
Duration : 1 h 48 min
Bit rate mode : Constant
Bit rate : 128 kb/s
Channel(s) : 2 channels
Sampling rate : 48.0 kHz
Frame rate : 41.667 FPS (1152 SPF)
Compression mode : Lossy
Stream size : 99.5 MiB (13%)
Alignment : Aligned on interleaves
Interleave, duration : 167 ms (4.00 video frames)
Interleave, preload duratio : 216 ms
Writing library : LAME3.99r
Encoding settings : -m s -V 4 -q 2 -lowpass 17 -b 128
[cybertorrent.net].t13301.torrent 
Торрент: Зарегистрирован [ 2020-03-23 19:11 ] · C56480A53691BE784BEB48F4468FAD825A369177

Скачать .torrent

Скачать

15 KB

Статус: проверено
Скачан: 0 раз
Размер: 746 MB  ·  Тип торрента
terms.php
Профиль [ЛС]
Показать сообщения:    

Текущее время: 06-Апр 10:05

Часовой пояс: UTC ± 0



Вы не можете начинать темы
Вы не можете отвечать на сообщения
Вы не можете редактировать свои сообщения
Вы не можете удалять свои сообщения
Вы не можете голосовать в опросах
Вы не можете прикреплять файлы к сообщениям
Вы можете скачивать файлы