MAGNAT ®

Пол:
Мужской
Стаж:
1 год
Сообщений:
4495

Скандал / Bombshell- Год выпуска: 2019
Страна: США, Канада
Студия: Annapurna Pictures, BRON Studios, Creative Wealth Media Finance
Жанр: драма, биография
Продолжительность: 01:48:44
Перевод: Профессиональный (дублированный)
Субтитры: русские (форсированные)-Режиссер: Джей Роуч / Jay Roach-В ролях: В ролях: Шарлиз Терон, Николь Кидман, Марго Робби, Джон Литгоу, Эллисон Джэнни, Малкольм МакДауэлл, Кейт МакКиннон, Конни Бриттон, Лив Хьюсон, Бригитт Ланди-Пейн, Роб Делани, Марк Дюпласс, Стивен Рут, Робин Вайгерт, Эми Ландекер.-Описание: История женщин, которые разоблачили и свергли с трона своего босса — печально известного основателя самой могущественной и противоречивой медиаимперии всех времен.-Доп. информация: «Скандал» (англ. Bombshell) — американский драматический фильм 2019 года режиссёра Джея Роуча, снятый по сценарию Чарльза Рэндольфа. В основу картины легли истории нескольких сотрудниц телеканала Fox News, обвинивших в сексуальных домогательствах генерального директора Fox News Роджера Айлза. Главные роли в фильме сыграли Шарлиз Терон, Николь Кидман и Марго Робби. Во второстепенных ролях снялись Джон Литгоу, Кейт Маккиннон, Конни Бриттон, Малкольм Макдауэлл и Эллисон Дженни.
Фильм получил в целом положительные отзывы критиков, которые хвалили актёрскую игру (особенно Терон, Робби и Литгоу), но критиковали сценарий и допущенные неточности. На 77-й церемонии вручения премий «Золотой глобус» Терон и Робби получили номинации как «лучшая актриса» и «лучшая актриса второго плана» соответственно.
Качество видео: HDRip
Формат видео: AVI |
Видео: 688x288 (2.40:1), 23.976 fps, XviD build 73 ~824 kbps avg, 0.173 bit/pixel
Аудио: 48 kHz, MPEG Layer 3, 2 ch, ~128.00 kbps avg | RUS

Инфо

Format : AVI
Format/Info : Audio Video Interleave
File size : 745 MiB
Duration : 1 h 48 min
Overall bit rate : 958 kb/s
Video
ID : 0
Format : MPEG-4 Visual
Format profile : Advanced Simple@L5
Format settings : BVOP1 / Custom Matrix
Format settings, BVOP : 1
Format settings, QPel : No
Format settings, GMC : No warppoints
Format settings, Matrix : Custom
Codec ID : XVID
Codec ID/Hint : XviD
Duration : 1 h 48 min
Bit rate : 824 kb/s
Width : 688 pixels
Height : 288 pixels
Display aspect ratio : 2.40:1
Frame rate : 23.976 (24000/1001) FPS
Color space : YUV
Chroma subsampling : 4:2:0
Bit depth : 8 bits
Scan type : Progressive
Compression mode : Lossy
Bits/(Pixel*Frame) : 0.173
Stream size : 641 MiB (86%)
Writing library : XviD 73
Audio
ID : 1
Format : MPEG Audio
Format version : Version 1
Format profile : Layer 3
Codec ID : 55
Codec ID/Hint : MP3
Duration : 1 h 48 min
Bit rate mode : Constant
Bit rate : 128 kb/s
Channel(s) : 2 channels
Sampling rate : 48.0 kHz
Frame rate : 41.667 FPS (1152 SPF)
Compression mode : Lossy
Stream size : 99.5 MiB (13%)
Alignment : Aligned on interleaves
Interleave, duration : 167 ms (4.00 video frames)
Interleave, preload duratio : 216 ms
Writing library : LAME3.99r
Encoding settings : -m s -V 4 -q 2 -lowpass 17 -b 128
Профиль [ЛС]
Показать сообщения:    

Текущее время: 06-Апр 08:25

Часовой пояс: UTC ± 0



Вы не можете начинать темы
Вы не можете отвечать на сообщения
Вы не можете редактировать свои сообщения
Вы не можете удалять свои сообщения
Вы не можете голосовать в опросах
Вы не можете прикреплять файлы к сообщениям
Вы не можете скачивать файлы