BOSS ®

Пол:
Мужской
Стаж:
14 дней
Сообщений:
38

Информация о фильме
Оригинальное название: Мама моей дочери
Год выхода: 2019
Жанр: Мелодрама
Режиссер: Ева Стрельникова
В ролях: Валерий Панков, Евгения Розанова, Владимир Заец, Екатерина Варченко, Анжелика Эшбаева, Ирина Токарчук, Екатерина Вишнёвая, Ирина Тамим, Сергей Детюк, Антон Скрипец, Александр Першин, Александр Крючков (II), Борислав Борисенко, Александр Катунин, Александр Третьяченко, Андрей Клименков, Станислав Щёкин, Сергей Бережко, Олесь Кацион
О фильме:
В центре сюжета – история двух подруг Оли и Даши, которые дружат чуть ли не с пеленок. Они помогают друг другу решать любые проблемы, поддерживают в сложных ситуациях. Даже их мужья организовали общий семейный бизнес – клининговую компанию. Поэтому, когда обе девушки узнали, что скоро станут мамами, то очень обрадовались, что их дети тоже родятся почти в одно и то же время. Но, к сожалению, на этом благополучное развитие фабулы прерывается...

Страна: Украина
Студия: Ivory films
Продолжительность: 4 х 00:45:14
Перевод: Не требуется
Файл
Кодек: XviD
Качество: WEB-DLRip
Видео: XviD, ~ 1588 Кбит/с, 720x400, 25 кадр/с
Звук: AC3, 2 ch, 192 Кбит/с

Скриншоты


MediaInfo

General
Complete name : C:01.Мама моей дочери.(2019).WEB-DLRip.by.Nicodem.Files-x.avi
Format : AVI
Format/Info : Audio Video Interleave
File size : 580 MiB
Duration : 45mn 19s
Overall bit rate : 1 790 Kbps
Writing application : VirtualDubMod 1.5.10.3 | www.virtualdub-fr.org || (build 2550/release)
Writing library : VirtualDubMod build 2550/release
Video
ID : 0
Format : MPEG-4 Visual
Format profile : Advanced Simple@L5
Format settings, BVOP : 1
Format settings, QPel : No
Format settings, GMC : No warppoints
Format settings, Matrix : Custom
Codec ID : XVID
Codec ID/Hint : XviD
Duration : 45mn 19s
Bit rate : 1 588 Kbps
Width : 720 pixels
Height : 400 pixels
Display aspect ratio : 16:9
Frame rate : 25.000 fps
Color space : YUV
Chroma subsampling : 4:2:0
Bit depth : 8 bits
Scan type : Progressive
Compression mode : Lossy
Bits/(Pixel*Frame) : 0.221
Stream size : 515 MiB (89%)
Writing library : XviD 73
Audio
ID : 1
Format : AC-3
Format/Info : Audio Coding 3
Mode extension : CM (complete main)
Codec ID : 2000
Duration : 45mn 19s
Bit rate mode : Constant
Bit rate : 192 Kbps
Channel(s) : 2 channels
Channel positions : Front: L R
Sampling rate : 48.0 KHz
Bit depth : 16 bits
Compression mode : Lossy
Stream size : 62.2 MiB (11%)
Alignment : Split accross interleaves
Interleave, duration : 40 ms (1.00 video frame)
Interleave, preload duration : 500 ms
Профиль [ЛС]
Показать сообщения:    

Текущее время: 06-Апр 07:41

Часовой пояс: UTC ± 0



Вы не можете начинать темы
Вы не можете отвечать на сообщения
Вы не можете редактировать свои сообщения
Вы не можете удалять свои сообщения
Вы не можете голосовать в опросах
Вы не можете прикреплять файлы к сообщениям
Вы не можете скачивать файлы