Статистика раздачи
Размер:  1,46 GB   |    Зарегистрирован:  7 месяцев 24 дня   |    Скачан:  0 раз

Полного источника не было: Никогда

 
     
 
 

солнышко ®

Пол:
Не указан
Стаж:
8 месяцев 3 дня
Сообщений:
565

Пазл / Головоломка / Puzzle- Год выхода: 2018
Страна: США
Производство: Sony Pictures Classics
Жанр: драма
Продолжительность: 01:38:56
Перевод: Профессиональный (многоголосый закадровый) R2 |Лицензия|
Субтитры: нет-Режиссер:
Марк Тёртлтауб / Marc Turtletaub-В ролях:
Келли Макдоналд, Ирфан Кхан, Дэвид Денман, Дэниэл Стюарт-Шерман, Остин Абрамс, Бабба Уейлер, Хелен Кокс, Мандела Беллами, Лив Хьюсон, Лори Хэммел-О фильме:
У Агнес всегда был талант к собиранию пазлов. Однажды она решает сбежать из уютного и тихого пригорода и отправиться в Нью-Йорк, откуда вместе с новым партнером планирует попасть в Атлантик-Сити, где проходит чемпионат по пазлам. Новообретенная независимость помогает ей увидеть свою жизнь в новом свете.-Релиз групп | | IMDB | КиноПоиск | Сэмпл |-Качество: DVDRip [DVD9 R2]
Формат: AVI
Видео: 720x304 (2.37:1), 25 fps, XviD build 67 ~1714 kbps avg, 0.31 bit/pixel
Аудио: 48 kHz, AC3 Dolby Digital, 3/2 (L,C,R,l,r) + LFE ch, ~384 kbps avg-

Скриншоты

-

MediaInfo

Код:Полное имя : D:\Pazl_2018_DVDRip_by_Dalemake.avi
Формат : AVI
Формат/Информация : Audio Video Interleave
Размер файла : 1,46 Гбайт
Продолжительность : 1 ч. 38 м.
Общий поток : 2109 Кбит/сек
Программа кодирования : VirtualDubMod 1.5.10.3 | www.virtualdub-fr.org || (build 2550/release)
Библиотека кодирования : VirtualDubMod build 2550/release
Видео
Идентификатор : 0
Формат : MPEG-4 Visual
Профиль формата : Advanced Simple@L5
Параметр BVOP формата : 1
Параметр QPel формата : Нет
Параметр GMC формата : Без точки перехода
Параметр матрицы формата : Выборочная
Идентификатор кодека : XVID
Идентификатор кодека/Подсказка : XviD
Продолжительность : 1 ч. 38 м.
Битрейт : 1715 Кбит/сек
Ширина : 720 пикселей
Высота : 304 пикселя
Соотношение сторон : 2,35:1
Частота кадров : 25,000 кадров/сек
Цветовое пространство : YUV
Субдискретизация насыщенности : 4:2:0
Битовая глубина : 8 бит
Тип развёртки : Прогрессивная
Метод сжатия : С потерями
Бит/(Пиксели*Кадры) : 0.313
Размер потока : 1,19 Гбайт (81%)
Библиотека кодирования : XviD 67
Аудио
Идентификатор : 1
Формат : AC-3
Формат/Информация : Audio Coding 3
Расширение режима : CM (complete main)
Параметр Endianness формата : Big
Идентификатор кодека : 2000
Продолжительность : 1 ч. 38 м.
Вид битрейта : Постоянный
Битрейт : 384 Кбит/сек
Каналы : 6 каналов
Расположение каналов : Front: L C R, Side: L R, LFE
Частота : 48,0 КГц
Метод сжатия : С потерями
Размер потока : 272 Мбайт (18%)
Выравнивание : Разделение по промежуткам
Продолжительность промежутка : 40 мс. (1,00 видеокадр)
Время предзагрузки промежутка : 500 мс.
-
[cybertorrent.net].t1322.torrent 
Торрент: Зарегистрирован [ 2019-03-22 16:11 ] · EDD8CA913448C6FFC2EE4D2925A62AFDCE399D26

Скачать .torrent

Скачать

15 KB

Статус: проверено
Скачан: 0 раз
Размер: 1,46 GB
terms.php
Профиль ЛС
Показать сообщения:    

Текущее время: 15-Ноя 18:36

Часовой пояс: UTC ± 0



Вы не можете начинать темы
Вы не можете отвечать на сообщения
Вы не можете редактировать свои сообщения
Вы не можете удалять свои сообщения
Вы не можете голосовать в опросах
Вы не можете прикреплять файлы к сообщениям
Вы можете скачивать файлы