Статистика раздачи
Размер:  743 MB   |    Зарегистрирован:  7 месяцев 30 дней   |    Скачан:  0 раз

Полного источника не было: Никогда

 
     
 
 

Гость ®

Пол:
Не указан

Кадриль
Год выпуска: 1999
Жанр: комедия
Продолжительность: 01:19:55.879 (119897 frames)
Субтитры: нет
Режиссер: Виктор Титов
В ролях: Станислав Любшин, Любовь Полищук, Олег Табаков, Валентина Теличкина, Нина Усатова
Описание: В далекой прибайкальской деревушке живут две семьи — Коля Звягинцев с женой Лидой и его сосед Саня Арефьев с женой Валей. Хоть и перевалило им за 60, но ведут они себя, как мальчишки — всё у них розыгрыши да подначки. Также, не желая того, во всей этой истории приняла участие их общая соседка, одинокая женщина Макеевна, потихоньку таскающая кирпичи со двора Звягинцевых. И закрутился веселый танец кадриль, как и положено с переменой партнеров...
Качество: HDTVRip
Формат: AVI
Видео кодек: XviD
Аудио кодек: МР3
Видео: 688x384 (1.79:1), 25 fps, XviD build 73 ~1162 kbps avg, 0.18 bit/pixel
Аудио: 48 kHz, MPEG Layer 3, 2 ch, ~128.00 kbps avg

Медиаинфо

General
Complete name : E:\004 Мои раздачи\Кадриль 745\kadril_745_by_bm11.avi
Format : AVI
Format/Info : Audio Video Interleave
File size : 743 MiB
Duration : 1h 19mn
Overall bit rate : 1 300 Kbps
Director : bm11
Writing application : VirtualDubMod 1.5.10.3 | www.virtualdub-fr.org || (build 2550/release)
Video
ID : 0
Format : MPEG-4 Visual
Format profile : Advanced Simple@L5
Format settings, BVOP : 1
Format settings, QPel : No
Format settings, GMC : No warppoints
Format settings, Matrix : Custom
Codec ID : XVID
Codec ID/Hint : XviD
Duration : 1h 19mn
Bit rate : 1 162 Kbps
Width : 688 pixels
Height : 384 pixels
Display aspect ratio : 16:9
Frame rate : 25.000 fps
Color space : YUV
Chroma subsampling : 4:2:0
Bit depth : 8 bits
Scan type : Progressive
Compression mode : Lossy
Bits/(Pixel*Frame) : 0.176
Stream size : 665 MiB (89%)
Writing library : XviD 73
Audio
ID : 1
Format : MPEG Audio
Format version : Version 1
Format profile : Layer 3
Codec ID : 55
Codec ID/Hint : MP3
Duration : 1h 19mn
Bit rate mode : Constant
Bit rate : 128 Kbps
Channel(s) : 2 channels
Sampling rate : 48.0 KHz
Compression mode : Lossy
Stream size : 73.2 MiB (10%)
Alignment : Aligned on interleaves
Interleave, duration : 40 ms (1.00 video frame)
Interleave, preload duratio : 504 ms
Writing library : LAME3.99r
Encoding settings : -m s -V 4 -q 2 -lowpass 17 -b 128
[cybertorrent.net].t1318.torrent 
Торрент: Зарегистрирован [ 2019-03-22 16:11 ] · 0EC83480617F1196B0F29DFA46375B9FCF414EAD

Скачать .torrent

Скачать

15 KB

Статус: проверено
Скачан: 0 раз
Размер: 743 MB
terms.php
Показать сообщения:    

Текущее время: 22-Ноя 12:57

Часовой пояс: UTC ± 0



Вы не можете начинать темы
Вы не можете отвечать на сообщения
Вы не можете редактировать свои сообщения
Вы не можете удалять свои сообщения
Вы не можете голосовать в опросах
Вы не можете прикреплять файлы к сообщениям
Вы можете скачивать файлы