Статистика раздачи
Размер:  1,09 GB   |    Зарегистрирован:  7 месяцев 22 дня   |    Скачан:  0 раз

Полного источника не было: Никогда

 
     
 
 

Гость ®

Пол:
Не указан

Агент в мини-юбке
Год выпуска: 2000
Жанр: комедия
Продолжительность: 01:04:07.000 (96175 frames)
Субтитры: нет
Режиссер: Анатолий Эйрамджан
В ролях: Екатерина Зинченко, Михаил Кокшенов, Людмила Потапова, Александр Панкратов-Чёрный, Наталья Селезнёва, Михаил Державин, Любовь Полищук, Татьяна Алексеева, Владимир Екимов, Мехмет Джесур
Описание: Наталья и Александр - муж и жена - прожили вместе много лет. И вот муж отправился отдыхать в Анталию, однако, приобретая тур, явился в турбюро с "молодой фифочкой". И подруга Натальи, Нина, узнавшая об этом, тут же сообщает Наталье, что ее муж отправился на отдых не один. Наталья не верит, а потом, поддавшись уговорам подруги, нанимает самодеятельного частного детектива (вернее, детектившу) с целью проследить за супругом и собрать компромат...
Качество: HDTVRip
Формат: AVI
Видео кодек: XviD
Аудио кодек: АС3
Видео: 720x528 (1.36:1), 25 fps, XviD build 73 ~2235 kbps avg, 0.24 bit/pixel
Аудио: 48 kHz, AC3 Dolby Digital, 2/0 (L,R) ch, ~192.00 kbps avg

Медиаинфо

General
Complete name : E:\004 Мои раздачи\Агент в мини-юбке 1,09\agent_v_miniubke_1.09_by_bm11.avi
Format : AVI
Format/Info : Audio Video Interleave
File size : 1.09 GiB
Duration : 1h 4mn
Overall bit rate : 2 438 Kbps
Director : bm11
Writing application : VirtualDubMod 1.5.10.3 | www.virtualdub-fr.org || (build 2550/release)
Video
ID : 0
Format : MPEG-4 Visual
Format profile : Advanced Simple@L5
Format settings, BVOP : 1
Format settings, QPel : No
Format settings, GMC : No warppoints
Format settings, Matrix : Custom
Codec ID : XVID
Codec ID/Hint : XviD
Duration : 1h 4mn
Bit rate : 2 236 Kbps
Width : 720 pixels
Height : 528 pixels
Display aspect ratio : 4:3
Frame rate : 25.000 fps
Color space : YUV
Chroma subsampling : 4:2:0
Bit depth : 8 bits
Scan type : Progressive
Compression mode : Lossy
Bits/(Pixel*Frame) : 0.235
Stream size : 1.00 GiB (92%)
Writing library : XviD 73
Audio
ID : 1
Format : AC-3
Format/Info : Audio Coding 3
Mode extension : CM (complete main)
Format settings, Endianness : Big
Codec ID : 2000
Duration : 1h 4mn
Bit rate mode : Constant
Bit rate : 192 Kbps
Channel(s) : 2 channels
Channel positions : Front: L R
Sampling rate : 48.0 KHz
Frame rate : 31.250 fps (1536 spf)
Compression mode : Lossy
Stream size : 88.1 MiB (8%)
Alignment : Split accross interleaves
Interleave, duration : 40 ms (1.00 video frame)
Interleave, preload duratio : 500 ms
[cybertorrent.net].t1317.torrent 
Торрент: Зарегистрирован [ 2019-03-22 16:11 ] · 029EA00B130228577AD416209437A9DA2874C113

Скачать .torrent

Скачать

11 KB

Статус: проверено
Скачан: 0 раз
Размер: 1,09 GB
terms.php
Показать сообщения:    

Текущее время: 14-Ноя 04:06

Часовой пояс: UTC ± 0



Вы не можете начинать темы
Вы не можете отвечать на сообщения
Вы не можете редактировать свои сообщения
Вы не можете удалять свои сообщения
Вы не можете голосовать в опросах
Вы не можете прикреплять файлы к сообщениям
Вы можете скачивать файлы