Статистика раздачи
Размер:  2,08 GB   |    Зарегистрирован:  7 месяцев 26 дней   |    Скачан:  0 раз

Полного источника не было: Никогда

 
     
 
 

Гость ®

Пол:
Не указан

Американские боги / American Gods Год выпуска: 2019
Страна: США
Жанр: фэнтези, драма, детектив.
Продолжительность: ~00:54:00
Перевод: Профессиональный (многоголосый закадровый) LostFilm
Режиссёр: Дэвид Слэйд, Крис Бирн, Адам Кэйн
В ролях: Рики Уиттл, Эмили Браунинг, Пабло Шрайбер, Криспин Гловер, Брюс Лэнгли, Йетиде Бадаки, Иэн МакШейн, Кахён Ким, Джиллиан Андерсон, Демор Барнс
Описание: Боги существуют. Это не выдумки религиозных фанатиков и не плод писательского воображения. Они живут благодаря вере и без нее ослабевают, чахнут и умирают. Давным-давно переселенцы со всех уголков Земли привезли в Америку своих богов, почитали и возвышали их, но теперь могущество демиургов пошатнулось. Современное общество покоряется деньгам, знаменитостям, гаджетам и социальным сетям, из-за чего Старых богов вытеснили Новые. Грядет великая война, и в ее эпицентре оказывается обычный человек--бывший заключенный Тень Лун. За несколько дней до освобождения из тюрьмы он узнает о трагической гибели жены. Опустошённый потерей, Тень отправляется на ее похороны и на своем пути встречает таинственного мистера Среду который предлагает новому знакомому работу телохранителя...

Качество: WEB-DLRip
Формат: AVI
Видео: XviD, 720x400, 23,976 fps, ~ 1999 kbps
Аудио 1: 48 kHz, AC3 6 ch, ~384 kbps|LostFilm|
Аудио 2: 48 kHz, AC3 6 ch, ~384 kbps
Субтитры: Русские (Forced | Full), Английские
Реклама: Отсутствует
Предыдущие и альтернативные раздачи

MediaInfo

Format : AVI
Format/Info : Audio Video Interleave
File size : 1.05 GiB
Duration : 53mn 53s
Overall bit rate : 2 782 Kbps
Movie name : Американские боги 2х01: Дом на холме
Director : Бёдвар WEB-DLRip 400p)
Writing application : VirtualDubModRus 1.5.10.2 (build 2542/release)
Comment : 13.03.2019
Video
ID : 0
Format : MPEG-4 Visual
Format profile : Advanced Simple@L5
Format settings, BVOP : 1
Format settings, QPel : No
Format settings, GMC : No warppoints
Format settings, Matrix : Default (MPEG)
Codec ID : XVID
Codec ID/Hint : XviD
Duration : 53mn 53s
Bit rate : 2 000 Kbps
Width : 720 pixels
Height : 400 pixels
Display aspect ratio : 16:9
Frame rate : 23.976 (24000/1001) fps
Color space : YUV
Chroma subsampling : 4:2:0
Bit depth : 8 bits
Scan type : Progressive
Compression mode : Lossy
Bits/(Pixel*Frame) : 0.290
Stream size : 771 MiB (72%)
Writing library : XviD 67
Audio #1
ID : 1
Format : AC-3
Format/Info : Audio Coding 3
Mode extension : CM (complete main)
Format settings, Endianness : Big
Codec ID : 2000
Duration : 53mn 53s
Bit rate mode : Constant
Bit rate : 384 Kbps
Channel(s) : 6 channels
Channel positions : Front: L C R, Side: L R, LFE
Sampling rate : 48.0 KHz
Frame rate : 31.250 fps (1536 spf)
Compression mode : Lossy
Stream size : 148 MiB (14%)
Alignment : Split accross interleaves
Interleave, duration : 42 ms (1.00 video frame)
Interleave, preload duratio : 500 ms
Audio #2
ID : 2
Format : AC-3
Format/Info : Audio Coding 3
Mode extension : CM (complete main)
Format settings, Endianness : Big
Codec ID : 2000
Duration : 53mn 53s
Bit rate mode : Constant
Bit rate : 384 Kbps
Channel(s) : 6 channels
Channel positions : Front: L C R, Side: L R, LFE
Sampling rate : 48.0 KHz
Frame rate : 31.250 fps (1536 spf)
Compression mode : Lossy
Stream size : 148 MiB (14%)
Alignment : Split accross interleaves
Interleave, duration : 42 ms (1.00 video frame)
Interleave, preload duratio : 500 ms

Скриншоты

Внимание! Раздача ведётся путём добавления новых серий

Внимание! Раздача ведётся путём добавления новых серий; при каждом добавлении создаётся новый торрент. Чтобы начать докачку новой серии,пользователям необходимо сделать следующее:
(1) остановить скачивание,
(2) удалить старый торрент у себя из клиента (старые серии удалять не надо),
(3) скачать новый торрент и запустить его у себя в клиенте вместо старого, при этом указать клиенту путь в старую папку куда и должнопроисходить скачивание новых серий.
Ваш клиент при этом должен произвести хеширование (проверку) старой папки (если не производит сам - помогите ему сделать это), и будет докачивать только те серии
которых у вас ещё нет. Старые серии при этом не удаляются, а продолжают раздаваться!
Eсли вы уже удалили старые серии, то предотвратить повторную закачку старых серий можно, отжав галочку в соответствующих местах при запуске нового торрента.
По возможности, желательно не удалять старые серии как можно дольше чтобы релизёр не столько продолжал раздавать старые серии, а смог сконцентрироваться на новых.
Релиз группы:
[cybertorrent.net].t1314.torrent 
Торрент: Зарегистрирован [ 2019-03-22 16:11 ] · 0AC64BB603A0C009076F7E7A2898C77879F7C708

Скачать .torrent

Скачать

12 KB

Статус: проверено
Скачан: 0 раз
Размер: 2,08 GB
terms.php
Показать сообщения:    

Текущее время: 17-Ноя 17:56

Часовой пояс: UTC ± 0



Вы не можете начинать темы
Вы не можете отвечать на сообщения
Вы не можете редактировать свои сообщения
Вы не можете удалять свои сообщения
Вы не можете голосовать в опросах
Вы не можете прикреплять файлы к сообщениям
Вы можете скачивать файлы