Статистика раздачи
Размер:  9,88 GB   |    Зарегистрирован:  7 месяцев 26 дней   |    Скачан:  0 раз

Полного источника не было: Никогда

 
     
 
 

Гость ®

Пол:
Не указан

Наследие | Legacies- Год выпуска: 2018
Страна: США
Жанр: ужасы, фэнтези, драма, детектив, приключения
Продолжительность: 00:42:00
Перевод: Любительский (многоголосый закадровый) TVShows--Режиссёр: Майкл А. Алловиц, Крис Грисмер, Пол Уэсли
В ролях: Даниэль Роуз Расселл, Мэттью Дэвис, Кайли Брайант, Дженни Бойд, Ария Шахгасеми, Пейтон «Алекс» Смит, Куинси Фаус, Арчи Фолтинович, Карен Дэвид, Кэти Гарфилд и др.-Описание: Рассказ о следующем поколении сверхъестественных существ в Школе Сальваторе для молодых и одаренных. Дочь Клауса Майклсона, 17-летняя Хоуп
Майклсон; Близнецы Аларика Зальцмана, Лиззи и Джози Зальцман, и другие молодые люди достигли совершеннолетия необычным способом, чтобы стать их лучшими личностями, несмотря на их худшие импульсы. Станут ли эти молодые ведьмы, вампиры и оборотни героями, которыми они хотят быть — или злодеями, которыми они родились?--
Качество: WEB-DLRip
Формат: AVI
Видео: XVID, 720x400, 23.976 fps, ~2000 kbps avg, 0.29 bit/pixel
Аудио Rus: AC3, 48.0 KHz, 6 channels, 384 kbps
Субтитры: отсутствуют
Реклама отсутствует
[box=#fff,#2F4F4F]Все раздачи сериала[/box]

MediaInfo

General
Complete name : G:\Наследие (Сезон 1) TVShows\Legacies.S01E01.WEB-DLRip.RGzsRutracker.Celta88.avi
Format : AVI
Format/Info : Audio Video Interleave
File size : 726 MiB
Duration : 42 min 25 s
Overall bit rate : 2 393 kb/s
Writing application : VirtualDubMod 1.5.10.3 | www.virtualdub-fr.org || (build 2550/release)
Writing library : VirtualDubMod build 2550/release
Video
ID : 0
Format : MPEG-4 Visual
Format profile : Advanced Simple@L5
Format settings, BVOP : 1
Format settings, QPel : No
Format settings, GMC : No warppoints
Format settings, Matrix : Custom
Codec ID : XVID
Codec ID/Hint : XviD
Duration : 42 min 25 s
Bit rate : 2 000 kb/s
Width : 720 pixels
Height : 400 pixels
Display aspect ratio : 16:9
Frame rate : 23.976 (24000/1001) FPS
Color space : YUV
Chroma subsampling : 4:2:0
Bit depth : 8 bits
Scan type : Progressive
Compression mode : Lossy
Bits/(Pixel*Frame) : 0.290
Stream size : 607 MiB (84%)
Writing library : XviD 73
Audio
ID : 1
Format : AC-3
Format/Info : Audio Coding 3
Mode extension : CM (complete main)
Format settings, Endianness : Big
Codec ID : 2000
Duration : 42 min 25 s
Bit rate mode : Constant
Bit rate : 384 kb/s
Channel(s) : 6 channels
Channel positions : Front: L C R, Side: L R, LFE
Sampling rate : 48.0 kHz
Frame rate : 31.250 FPS (1536 spf)
Bit depth : 16 bits
Compression mode : Lossy
Stream size : 117 MiB (16%)
Alignment : Split accross interleaves
Interleave, duration : 42 ms (1.00 video frame)
Interleave, preload duratio : 500 ms

Скриншоты

Внимание! Раздача ведётся путём добавления новых серий!

Внимание! Раздача ведётся путём добавления новых серий; при каждом добавлении создаётся новый торрент.
Чтобы начать докачку новой серии, пользователям необходимо сделать следующее:
1. Остановить скачивание.
2. Удалить старый торрент у себя из клиента (старые серии удалять не надо).
3. Скачать новый торрент и запустить его у себя в клиенте вместо старого, при этом указать клиенту путь в старую папку куда и должно происходить скачивание новых серий.
Ваш клиент при этом должен произвести хеширование (проверку) старой папки (если не производит сам - помогите ему сделать это), и будет докачивать только те серии которых у вас ещё нет. Старые серии при этом не удаляются, а продолжают раздаваться!
Eсли вы уже удалили старые серии, то предотвратить повторную закачку старых серий можно, отжав галочку в соответствующих местах при запуске нового торрента.
Релиз группы:
[cybertorrent.net].t1307.torrent 
Торрент: Зарегистрирован [ 2019-03-22 16:11 ] · 1B75DF07156EBD45F2059D4EC6F08A7306B8C66F

Скачать .torrent

Скачать

51 KB

Статус: проверено
Скачан: 0 раз
Размер: 9,88 GB
terms.php
Показать сообщения:    

Текущее время: 17-Ноя 17:19

Часовой пояс: UTC ± 0



Вы не можете начинать темы
Вы не можете отвечать на сообщения
Вы не можете редактировать свои сообщения
Вы не можете удалять свои сообщения
Вы не можете голосовать в опросах
Вы не можете прикреплять файлы к сообщениям
Вы можете скачивать файлы