Статистика раздачи
Размер:  6,73 GB   |    Зарегистрирован:  8 месяцев 13 дней   |    Скачан:  0 раз

Полного источника не было: Никогда

 
     
 
 

Гость ®

Пол:
Не указан

911 служба спасения / 9-1-1- Год выпуска: 2018
Страна: США
Жанр: Драма
Продолжительность: 00:44:05-Перевод: Профессиональный (многоголосый закадровый) - LostFilm-Режиссёр: Брэдли Букер-В ролях: Анджела Бассетт, Конни Бриттон, Рокмонд Данбар, Чарльз Бэйкер, Питер Краузе, Кеннет Чои, Тодд Гибенхейн, Пабло Рамос, Аиша Хиндс, Харрисон Уайт, Корина Мессиа, Лисса Палло, Франц Дюран, Оливер Старк-Описание: Сериал расскажет о работе полицейских, «Скорой помощи» и пожарной службы. Все они выполняют свой долг, часто рискуя жизнью и попадая в самые пугающие и шокирующие ситуации. Смысл их ежедневной работы состоит в охране безопасности улиц и помощи всем, кто в ней нуждается. Полицейские, пожарные и парамедики работают бок о бок в жестких условиях большого города. Эти экстренные службы должны стараться балансировать, спасая тех, кто находится в наиболее уязвимом положении, и при этом решать проблемы в их собственной жизни.
Сэмпл: http://multi-up.com/1211427
Качество: WEB-DLRip
Формат: AVI
Видео: 720x400 (16:9), 23.976 fps, XviD, 1874 Kbps, 0.27 bit/pixel
Аудио: MP3, 48 kHz, 2 ch, 192 kbps - Rus
Субтитры: Отсутствуют-Реклама: Присутствует заставка и логотип LostFilm.-Предыдущие и альтернативные раздачи-

MediaInfo

General
Complete name : Downloads\911.служба спасения.(S02)LostFilm\9-1-1.S02E01.rus.LostFilm.avi
Format : AVI
Format/Info : Audio Video Interleave
File size : 654 MiB
Duration : 44mn 5s
Overall bit rate mode : Variable
Overall bit rate : 2 074 Kbps
Writing application : Nandub v1.0rc2
Writing library : Nandub build 1853/release
Video #0
ID : 0
Format : MPEG-4 Visual
Format profile : Advanced Simple@L5
Format settings, BVOP : No
Format settings, QPel : No
Format settings, GMC : No warppoints
Format settings, Matrix : Default (MPEG)
Codec ID : XVID
Codec ID/Hint : XviD
Duration : 44mn 5s
Bit rate : 1 874 Kbps
Width : 720 pixels
Height : 400 pixels
Display aspect ratio : 16:9
Frame rate : 23.976 fps
Color space : YUV
Chroma subsampling : 4:2:0
Bit depth : 8 bits
Scan type : Progressive
Compression mode : Lossy
Bits/(Pixel*Frame) : 0.271
Stream size : 591 MiB (90%)
Writing library : XviD 1.2.1 (UTC 2008-12-04)
Audio #1
ID : 1
Format : MPEG Audio
Format version : Version 1
Format profile : Layer 3
Mode : Joint stereo
Mode extension : MS Stereo
Codec ID : 55
Codec ID/Hint : MP3
Duration : 44mn 5s
Bit rate mode : Variable
Bit rate : 192 Kbps
Channel(s) : 2 channels
Sampling rate : 48.0 KHz
Compression mode : Lossy
Stream size : 59.2 MiB (9%)
Alignment : Aligned on interleaves
Interleave, duration : 24 ms (0.58 video frame)
Interleave, preload duration : 482 ms
Writing library : LAME3.97b
Encoding settings : -m j -V 4 -q 3 -lowpass 18.6 --abr 192

Скриншоты

Внимание! Раздача ведётся путём добавления новых серий:

(1) остановить скачивание,
(2) удалить старый торрент у себя из клиента (старые серии удалять не надо),
(3) скачать новый торрент и запустить его у себя в клиенте вместо старого, при этом указать клиенту путь в старую папку куда и должно происходить скачивание новых серий.
Ваш клиент при этом должен произвести хеширование (проверку) старой папки (если не производит сам - помогите ему сделать это), и будет докачивать только те серии которых у вас ещё нет. Старые серии при этом не удаляются, а продолжают раздаваться!
Eсли вы уже удалили старые серии, то предотвратить повторную закачку старых серий можно, отжав галочку в соответсвующих местах при запуске нового торрента. По возможности, желательно не удалять старые серии как можно дольше чтобы релизёр не столько продолжал раздавать старые серии, а смог сконцентрироваться на новых
.
[cybertorrent.net].t1304.torrent 
Торрент: Зарегистрирован [ 2019-03-22 16:11 ] · 3DB22054478126D5CE8950E5203FF5E81F1E4C42

Скачать .torrent

Скачать

35 KB

Статус: проверено
Скачан: 0 раз
Размер: 6,73 GB
terms.php
Показать сообщения:    

Текущее время: 05-Дек 15:56

Часовой пояс: UTC ± 0



Вы не можете начинать темы
Вы не можете отвечать на сообщения
Вы не можете редактировать свои сообщения
Вы не можете удалять свои сообщения
Вы не можете голосовать в опросах
Вы не можете прикреплять файлы к сообщениям
Вы можете скачивать файлы