Статистика раздачи
Размер:  715 MB   |    Зарегистрирован:  7 месяцев   |    Скачан:  0 раз
DL-List: Нет

Полного источника не было: Никогда

 
     
 
 

MAGNAT ®

Пол:
Мужской
Стаж:
1 год 6 месяцев
Сообщений:
9039

Скитания капитана "Армады" / After The Armada
Дата/Год выпуска: 2017
Страна: Ирландия
Жанр: Документальный, история
Продолжительность: 00:50:23
Перевод: Профессиональный (двухголосый закадровый)
Доп. инфо о переводе: Видеопродакшн
Режиссер: Macha Media / Мача Медиа
Телеканал: Морской
Описание: Капитан испанской "Армады" Франсиско де Куэльяр потерпел кораблекрушение у побережья Слайго в сентябре 1588 года. Он провел семь месяцев в раздираемой войной Ирландии, пытаясь избежать смерти, прежде чем отправиться в Мадрид.
качество: DVB
формат: TS
Видео: 720x576 (16:9) AVC (H.264) High@L3, ~ 1561 kbps, 25 fps
Аудио: Русский 48 kHz, AC3 Dolby Digital, 2/0 (L,R) ch, ~160.00 kbps avg
Аудио 2: Английский 48 kHz, AC3 Dolby Digital, 2/0 (L,R) ch, ~160.00 kbps avg

MediaInfo

Complete name : D:\Торренты\Фильмы\Документальные\Скитания капитана Армады.ts
Format : MPEG-TS
File size : 715 MiB
Duration : 50 min 23 s
Overall bit rate mode : Variable
Overall bit rate : 1 982 kb/s
Video
ID : 214 (0xD6)
Menu ID : 414 (0x19E)
Format : AVC
Format/Info : Advanced Video Codec
Format profile : High@L3
Format settings : CABAC / 4 Ref Frames
Format settings, CABAC : Yes
Format settings, Reference : 4 frames
Format settings, GOP : M=2, N=16
Codec ID : 27
Duration : 50 min 24 s
Bit rate : 1 561 kb/s
Width : 720 pixels
Height : 576 pixels
Display aspect ratio : 16:9
Frame rate : 25.000 FPS
Standard : Component
Color space : YUV
Chroma subsampling : 4:2:0
Bit depth : 8 bits
Scan type : Interlaced
Scan type, store method : Separated fields
Scan order : Top Field First
Bits/(Pixel*Frame) : 0.151
Stream size : 563 MiB (79%)
Color range : Limited
Color primaries : BT.601 PAL
Transfer characteristics : BT.470 System B/G
Matrix coefficients : BT.470 System B/G
Audio #1
ID : 314 (0x13A)
Menu ID : 414 (0x19E)
Format : MPEG Audio
Format version : Version 1
Format profile : Layer 2
Codec ID : 3
Duration : 50 min 24 s
Bit rate mode : Constant
Bit rate : 160 kb/s
Channel(s) : 2 channels
Sampling rate : 48.0 kHz
Frame rate : 41.667 FPS (1152 SPF)
Compression mode : Lossy
Stream size : 57.7 MiB (8%)
Language : Russian
Audio #2
ID : 414 (0x19E)
Menu ID : 414 (0x19E)
Format : MPEG Audio
Format version : Version 1
Format profile : Layer 2
Codec ID : 3
Duration : 50 min 24 s
Bit rate mode : Constant
Bit rate : 160 kb/s
Channel(s) : 2 channels
Sampling rate : 48.0 kHz
Frame rate : 41.667 FPS (1152 SPF)
Compression mode : Lossy
Stream size : 57.7 MiB (8%)
Language : English
[cybertorrent.net].t13030.torrent 
Торрент: Зарегистрирован [ 2020-03-20 16:35 ] · C081D9938691E1A535B88898BD8A436B41B00413

Скачать .torrent

Скачать

14 KB

Статус: проверено
Скачан: 0 раз
Размер: 715 MB  ·  Тип торрента
terms.php
Профиль [ЛС]
Показать сообщения:    

Текущее время: 20-Окт 23:43

Часовой пояс: UTC ± 0



Вы не можете начинать темы
Вы не можете отвечать на сообщения
Вы не можете редактировать свои сообщения
Вы не можете удалять свои сообщения
Вы не можете голосовать в опросах
Вы не можете прикреплять файлы к сообщениям
Вы можете скачивать файлы