Статистика раздачи
Размер:  614 MB   |    Зарегистрирован:  6 месяцев 24 дня   |    Скачан:  0 раз

Полного источника не было: Никогда

   
 

Гость ®

Пол:
Не указан

Правосудие / The Fix
Год выпуска: 2019
Страна: США
Жанр: драма
Продолжительность: ~00:43:00
Перевод: Профессиональный (многоголосый закадровый) Кириллица
Режиссёр: Майкл Кэтлман, Лариса Кондрацки, Эдвард Орнелас
В ролях: Робин Танни, Адевале Акинойе-Агбаже, Меррин Данги, Тейлор Калупа, Музам Маккар, Скотт Коэн, Алекс Саксон, Робби Джонс, Адам Рэйнер
Описание: Карьера непреклонного прокурора Майи Трэвис рушится, когда она проигрывает дело против кинозвезды, подозреваемой в убийстве. Годы спустя Майя возвращается, чтобы расследовать похожее преступление. Сериал «Правосудие» основан на оригинальной идее американского прокурора Марсии Кларк, которая прославилась после скандального дела над футболистом и актером О. Джей Симпсоном. Несгибаемого обвинителя сыграла Робин Танни («Конец света», «Вертикальный предел», «Менталист»). Восемь лет назад актер-миллионер с мировой славой Сэвви Джонсон предстал перед судом за убийство своей бывшей жены. Дело против кинозвезды вела принципиальный прокурор Майя Трэвис, которая стала мишенью общественной критики и яростных нападок прессы. Суд признал Джонсона невиновным. Потерпев скандальное поражение и разочаровавшись в правосудии, Майя уехала из Лос-Анджелеса в сельскую глубинку. У нее появляется шанс очистить свое имя, когда новую 26-летнюю любовницу Джонсона находят забитой до смерти. Майя возвращается, чтобы восстановить справедливость и расквитаться со старыми врагами – Джонсоном и его ловким адвокатом.

Сэмпл: http://sendfile.su/1483412
Качество: WEB-DLRip
Формат: AVI
Видео: 704x400 (1.76:1), 23.976 fps, XviD build 73 ~1599 kbps avg, 0.24 bit/pixel
Аудио #1: 48 kHz, AC3 Dolby Digital, 2/0 (L,R) ch, ~192.00 kbps avg
Аудио #2: 48 kHz, AC3 Dolby Digital, 2/0 (L,R) ch, ~192.00 kbps avg
Субтитры: Отсутствуют
Реклама: Отсутствует

Список серий

01. Pilot

MediaInfo

General
Complete name : D:\Мои рипы\The.Fix.S01.RGzsRutracker.[LoRd]\The.Fix.S01E01.RGzsRutracker.[LoRd].avi
Format : AVI
Format/Info : Audio Video Interleave
File size : 614 MiB
Duration : 42 min 59 s
Overall bit rate : 1 998 kb/s
Writing application : VirtualDubMod 1.5.10.2 (build 2540/release)
Writing library : VirtualDubMod build 2540/release
Video
ID : 0
Format : MPEG-4 Visual
Format profile : Advanced Simple@L5
Format settings : BVOP1 / Custom Matrix
Format settings, BVOP : 1
Format settings, QPel : No
Format settings, GMC : No warppoints
Format settings, Matrix : Custom
Codec ID : XVID
Codec ID/Hint : XviD
Duration : 42 min 59 s
Bit rate : 1 600 kb/s
Width : 704 pixels
Height : 400 pixels
Display aspect ratio : 16:9
Frame rate : 23.976 (24000/1001) FPS
Color space : YUV
Chroma subsampling : 4:2:0
Bit depth : 8 bits
Scan type : Progressive
Compression mode : Lossy
Bits/(Pixel*Frame) : 0.237
Stream size : 492 MiB (80%)
Writing library : XviD 73
Audio #1
ID : 1
Format : AC-3
Format/Info : Audio Coding 3
Commercial name : Dolby Digital
Codec ID : 2000
Duration : 42 min 59 s
Bit rate mode : Constant
Bit rate : 192 kb/s
Channel(s) : 2 channels
Channel layout : L R
Sampling rate : 48.0 kHz
Frame rate : 31.250 FPS (1536 SPF)
Bit depth : 16 bits
Compression mode : Lossy
Stream size : 59.0 MiB (10%)
Alignment : Split accross interleaves
Interleave, duration : 42 ms (1.00 video frame)
Interleave, preload duration : 500 ms
Service kind : Complete Main
Audio #2
ID : 2
Format : AC-3
Format/Info : Audio Coding 3
Commercial name : Dolby Digital
Codec ID : 2000
Duration : 42 min 59 s
Bit rate mode : Constant
Bit rate : 192 kb/s
Channel(s) : 2 channels
Channel layout : L R
Sampling rate : 48.0 kHz
Frame rate : 31.250 FPS (1536 SPF)
Bit depth : 16 bits
Compression mode : Lossy
Stream size : 59.0 MiB (10%)
Alignment : Split accross interleaves
Interleave, duration : 42 ms (1.00 video frame)
Interleave, preload duration : 500 ms
Service kind : Complete Main

Скриншоты

Исходник

За исходники спасибо Wilmots@Eniahd
Предыдущие и альтернативные раздачи
[cybertorrent.net].t1299.torrent 
Торрент: Зарегистрирован [ 2019-03-21 15:52 ] · 6F30ADA5C3EC23A9D12E28F8455A990352169131

Скачать .torrent

Скачать

13 KB

Статус: проверено
Скачан: 0 раз
Размер: 614 MB
terms.php
Показать сообщения:    

Текущее время: 15-Окт 06:41

Часовой пояс: UTC ± 0



Вы не можете начинать темы
Вы не можете отвечать на сообщения
Вы не можете редактировать свои сообщения
Вы не можете удалять свои сообщения
Вы не можете голосовать в опросах
Вы не можете прикреплять файлы к сообщениям
Вы можете скачивать файлы