Статистика раздачи
Размер:  3,47 GB   |    Зарегистрирован:  8 месяцев 19 дней   |    Скачан:  0 раз

Полного источника не было: Никогда

 
     
 
 

Гость ®

Пол:
Не указан

Голдберги / The Goldbergs
Год выпуска: 2018
Страна: США
Жанр: Комедия
Продолжительность: ~ 00:21:00
Перевод: Профессиональный (двухголосый закадровый) Gears Media
Режиссёры: Дэвид Катценберг, Джей Чандрашекхар, Лью Шнайдер
В ролях: Венди МакЛендон-Кови, Шон Джамброун, Трой Джентиле, Джефф Гарлин, Джордж Сигал, Хейли Оррантия, Джексон Оделл, Натали Элин Линд, Трой Уинбуш
Описание: До наступления эры блогов о воспитании, наград за посещаемость и аллергии на арахис была простая эпоха, именуемая восьмидесятыми. Счастливые годочки для 11-летнего гика Адама, который встречал их, вооруженный видеокамерой.
Семья Голдбергов – обычная семья, только вот кричат они чаще. Мама Беверли – типичная еврейская мамаша, властная и не уважающая личную свободу. Папа Мюррей пытается воспитывать детей без крика, несмотря на вспыльчивый характер. Сестре и красавице Эрике 17 лет, и с ней лучше не связываться. Отличнику Барри 16 лет, и у него классический синдром среднего ребенка. Младшенький Адам будет режиссером, когда вырастет. Любимый дедушка Эл Соломон – престарелый донжуан, который учит Адама премудростям любви
Ссылка на предыдущие и альтернативные раздачи: http://cybertorrent.ru/forum/tracker.php?nm=The+Goldbergs
Сэмпл: http://multi-up.com/1210335
Качество: WEBRip
Формат: AVI
Видео: XviD, 720x400 at 23.976 fps, ~1500 kbps avg
Аудио1: Russian, MP3, 48 kHz, 2 ch, 128 kbps
Аудио2: English, MP3, 48 kHz, 2 ch, 128 kbps
Субтитры: нет
Реклама: аудио (два раза, в начале и конце, по 12 сек.)

MediaInfo

Format : AVI
Format/Info : Audio Video Interleave
File size : 274 MiB
Duration : 21 min 31 s
Overall bit rate : 1 776 kb/s
Writing application : Lavf57.29.101
Video
ID : 0
Format : xvid
Codec ID : xvid
Duration : 21 min 31 s
Bit rate : 1 500 kb/s
Width : 720 pixels
Height : 400 pixels
Display aspect ratio : 16:9
Frame rate : 23.976 (24000/1001) FPS
Scan type : Progressive
Bits/(Pixel*Frame) : 0.217
Stream size : 231 MiB (84%)
Audio #1
ID : 1
Format : MPEG Audio
Format version : Version 1
Format profile : Layer 3
Format settings : Joint stereo / MS Stereo
Codec ID : 55
Codec ID/Hint : MP3
Duration : 21 min 31 s
Bit rate mode : Constant
Bit rate : 128 kb/s
Channel(s) : 2 channels
Sampling rate : 48.0 kHz
Compression mode : Lossy
Stream size : 19.7 MiB (7%)
Alignment : Aligned on interleaves
Interleave, duration : 24 ms (0.58 video frame)
Interleave, preload duratio : 24 ms
Title : Gears Media
Audio #2
ID : 2
Format : MPEG Audio
Format version : Version 1
Format profile : Layer 3
Format settings : Joint stereo / MS Stereo
Codec ID : 55
Codec ID/Hint : MP3
Duration : 21 min 31 s
Bit rate mode : Constant
Bit rate : 128 kb/s
Channel(s) : 2 channels
Sampling rate : 48.0 kHz
Compression mode : Lossy
Stream size : 19.7 MiB (7%)
Alignment : Aligned on interleaves
Interleave, duration : 24 ms (0.58 video frame)
Interleave, preload duratio : 24 ms

Скриншоты

Внимание! Раздача ведётся путём добавления новых серий

Внимание! Раздача ведётся путём добавления новых серий; при каждом добавлении создаётся новый торрент. Чтобы начать докачку новой серии, пользователям необходимо сделать следующее:
(1) остановить скачивание,
(2) удалить старый торрент у себя из клиента (старые серии удалять не надо),
(3) скачать новый торрент и запустить его у себя в клиенте вместо старого, при этом указать клиенту путь в старую папку куда и должно происходить скачивание новых серий.
Ваш клиент при этом должен произвести хеширование (проверку) старой папки (если не производит сам - помогите ему сделать это), и будет докачивать только те серии которых у вас ещё нет. Старые серии при этом не удаляются, а продолжают раздаваться!
Eсли вы уже удалили старые серии, то предотвратить повторную закачку старых серий можно, отжав галочку в соответствующих местах при запуске нового торрента. По возможности, желательно не удалять старые серии как можно дольше чтобы релизёр не столько продолжал раздавать старые серии, а смог сконцентрироваться на новых.
[cybertorrent.net].t1267.torrent 
Торрент: Зарегистрирован [ 2019-03-21 15:52 ] · 69853121FF1D743963325E14BEFCD073578365FE

Скачать .torrent

Скачать

19 KB

Статус: проверено
Скачан: 0 раз
Размер: 3,47 GB
terms.php
Показать сообщения:    

Текущее время: 10-Дек 09:10

Часовой пояс: UTC ± 0



Вы не можете начинать темы
Вы не можете отвечать на сообщения
Вы не можете редактировать свои сообщения
Вы не можете удалять свои сообщения
Вы не можете голосовать в опросах
Вы не можете прикреплять файлы к сообщениям
Вы можете скачивать файлы