Статистика раздачи
Размер:  2,18 GB   |    Зарегистрирован:  6 месяцев 29 дней   |    Скачан:  0 раз
Сидов:  16  [  0 KB/s  ]   Личеров:  2  [  0 KB/s  ]  
   
 

солнышко ®

Пол:
Не указан
Стаж:
7 месяцев 6 дней
Сообщений:
565

Сломанный ключ / The Broken Key
Страна: Италия
Жанр: фантастика, триллер
Год выпуска: 2017
Продолжительность: 02:05:01
Перевод: Любительский (многоголосый закадровый) Синема УС
Субтитры: нет
Оригинальная аудиодорожка: английский
Режиссер: Луис Неро / Louis Nero
В ролях: Рутгер Хауэр, Майкл Мэдсен, Кристофер Ламберт, Уильям Болдуин, Джеральдин Чаплин, Франко Неро, Мария де Медейруш, Кабир Беди, Марко Фьорини-Описание: В недалёком будущем бумага становится дефицитом, а библиотеки превращаются в закрытые музеи, которые не каждому доступны. Печать здесь запрещена, и информация поступает только на цифровые носители. В этом цифровом городе неожиданно происходит серия ритуальных убийств. Главный герой Адам попытается настигнуть убийцу, следуя подсказкам, которые он оставляет.-Качество видео: HDRip
Формат видео: AVI
Видео: XviD, 720x304 (2,36:1), 23,976 fps, 1906 kbps
Аудио 1: AC3 Dolby Digital, 48 kHz, 2 ch, 192 kbps (Rus)
Аудио 2: AC3 Dolby Digital, 48 kHz, 6 ch, 384 kbps (Eng)
За работу с аудиодорожкой большое спасибо Нордер

MediaInfo

Общее
Полное имя : The Broken Key 2017.avi
Формат : AVI
Формат/Информация : Audio Video Interleave
Профиль формата : OpenDML
Размер файла : 2,18 Гбайт
Продолжительность : 2 ч. 5 м.
Общий поток : 2500 Кбит/сек
Программа кодирования : VirtualDubMod 1.5.10.2 (build 2542/release)
Библиотека кодирования : VirtualDubMod build 2542/release
Видео
Идентификатор : 0
Формат : MPEG-4 Visual
Профиль формата : Advanced Simple@L5
Настройки формата : BVOP2 / Custom Matrix
Параметр BVOP формата : 2
Параметр QPel формата : Нет
Параметр GMC формата : Без точки перехода
Параметр матрицы формата : Выборочная
Идентификатор кодека : XVID
Идентификатор кодека/Подсказка : XviD
Продолжительность : 2 ч. 5 м.
Битрейт : 1906 Кбит/сек
Ширина : 720 пикселей
Высота : 304 пикселя
Соотношение сторон : 2,35:1
Частота кадров : 23,976 (24000/1001) кадра/сек
Цветовое пространство : YUV
Субдискретизация насыщенности : 4:2:0
Битовая глубина : 8 бит
Тип развёртки : Прогрессивная
Метод сжатия : С потерями
Бит/(Пиксели*Кадры) : 0.363
Размер потока : 1,66 Гбайт (76%)
Библиотека кодирования : XviD 65
Аудио #1
Идентификатор : 1
Формат : AC-3
Формат/Информация : Audio Coding 3
Идентификатор кодека : 2000
Продолжительность : 2 ч. 5 м.
Вид битрейта : Постоянный
Битрейт : 192 Кбит/сек
Каналы : 2 канала
Расположение каналов : Front: L R
Частота : 48,0 КГц
Частота кадров : 31,250 кадров/сек (1536 SPF)
Битовая глубина : 16 бит
Метод сжатия : С потерями
Размер потока : 172 Мбайт (8%)
Выравнивание : Разделение по промежуткам
Продолжительность промежутка : 42 мс. (1,00 видеокадр)
Время предзагрузки промежутка : 500 мс.
ServiceKind/String : Complete Main
Аудио #2
Идентификатор : 2
Формат : AC-3
Формат/Информация : Audio Coding 3
Идентификатор кодека : 2000
Продолжительность : 2 ч. 5 м.
Вид битрейта : Постоянный
Битрейт : 384 Кбит/сек
Каналы : 6 каналов
Расположение каналов : Front: L C R, Side: L R, LFE
Частота : 48,0 КГц
Частота кадров : 31,250 кадров/сек (1536 SPF)
Битовая глубина : 16 бит
Метод сжатия : С потерями
Размер потока : 343 Мбайт (15%)
Выравнивание : Разделение по промежуткам
Продолжительность промежутка : 42 мс. (1,00 видеокадр)
Время предзагрузки промежутка : 500 мс.
ServiceKind/String : Complete Main
[cybertorrent.net].t1251.torrent 
Торрент: Зарегистрирован [ 2019-03-20 17:24 ] · 2821F60A93BAC48C63AD6834B3D57DB56B7AEC80

Скачать .torrent

Скачать

11 KB

Статус: проверено
Скачан: 0 раз
Размер: 2,18 GB
terms.php
Профиль ЛС
Показать сообщения:    

Текущее время: 19-Окт 10:22

Часовой пояс: UTC ± 0



Вы не можете начинать темы
Вы не можете отвечать на сообщения
Вы не можете редактировать свои сообщения
Вы не можете удалять свои сообщения
Вы не можете голосовать в опросах
Вы не можете прикреплять файлы к сообщениям
Вы можете скачивать файлы