Статистика раздачи
Размер:  1,46 GB   |    Зарегистрирован:  7 месяцев 27 дней   |    Скачан:  0 раз

Полного источника не было: Никогда

 
     
 
 

serzh ®

Пол:
Не указан
Стаж:
8 месяцев 5 дней
Сообщений:
384

Черное брюхо тарантула / Черное брюшко тарантула / La tarantola dal ventre nero
Страна: Италия, Франция
Жанр: триллер, джалло, детектив
Год выпуска: 1971
Продолжительность: 01:36:52

Перевод: Авторский (одноголосый закадровый) Сергей Кузнецов
Субтитры: нет
Режиссер: Паоло Кавара / Paolo Cavara
В ролях: Джанкарло Джаннини, Клодин Оже, Барбара Буше, Росселла Фальк, Сильвано Транквилли, Аннабелла Инконтрера, Эцио Марано, Барбара Бах
Описание: Молодой комиссар полиции Теллини ведет расследование загадочных убийств женщин, посещавших один и тот же салон красоты. Несмотря на усилия усердного детектива число жертв растет, а каждая из зацепленных расследованием ниточек ведет по ложному следу. Методы убийцы в черном запомнятся навсегда. Отравленной иглой он парализует жертву, а потом вскрывает ей живот ножом. Точно так же оса расправляется со смертоносным тарантулом — парализуя уколом жала в брюхо...
Доп. информация: Выражаю огромную благодарность Нордеру за синхронизацию дорожки с Кузнецовым. За дорогу благодарим m.mamichev

Сэмпл: http://multi-up.com/1226862
Качество видео: HDRip (Исходник BDRip 720p)
Формат видео: AVI
Видео: XviD 73, 720x400, (16:9), 23,976 fps, 1925 Кбит/с, 8 бит, 0.28 bit/pixel
Аудио: Русский (АС3, 2 ch (Front: L R), 48,0 KHz, 224 Kbps)

MediaInfo

Общее
Полное имя : D:\Фильмы на трекер\Черное брюхо тарантула (триллер, детектив 1971 год).avi
Формат : AVI
Формат/Информация : Audio Video Interleave
Размер файла : 1,46 Гбайт
Продолжительность : 1 ч. 36 м.
Общий поток : 2159 Кбит/сек
Программа кодирования : VirtualDubMod 1.5.10.2 (build 2540/release)
Библиотека кодирования : VirtualDubMod build 2540/release
Видео
Идентификатор : 0
Формат : MPEG-4 Visual
Профиль формата : Advanced Simple@L5
Параметр BVOP формата : 2
Параметр QPel формата : Нет
Параметр GMC формата : Без точки перехода
Параметр матрицы формата : Выборочная
Идентификатор кодека : XVID
Идентификатор кодека/Подсказка : XviD
Продолжительность : 1 ч. 36 м.
Битрейт : 1925 Кбит/сек
Ширина : 720 пикселей
Высота : 400 пикселей
Соотношение сторон : 16:9
Частота кадров : 23,976 (23976/1000) кадра/сек
Цветовое пространство : YUV
Субдискретизация насыщенности : 4:2:0
Битовая глубина : 8 бит
Тип развёртки : Прогрессивная
Метод сжатия : С потерями
Бит/(Пиксели*Кадры) : 0.279
Размер потока : 1,30 Гбайт (89%)
Библиотека кодирования : XviD 73
Аудио
Идентификатор : 1
Формат : AC-3
Формат/Информация : Audio Coding 3
Расширение режима : CM (complete main)
Параметр Endianness формата : Big
Идентификатор кодека : 2000
Продолжительность : 1 ч. 36 м.
Вид битрейта : Постоянный
Битрейт : 224 Кбит/сек
Каналы : 2 канала
Расположение каналов : Front: L R
Частота : 48,0 КГц
Частота кадров : 31,250 кадров/сек (1536 spf)
Метод сжатия : С потерями
Размер потока : 155 Мбайт (10%)
Выравнивание : Разделение по промежуткам
Продолжительность промежутка : 42 мс. (1,00 видеокадр)
Время предзагрузки промежутка : 500 мс.

Скриншот c названием фильма

Скриншоты

[cybertorrent.net].t1249.torrent 
Торрент: Зарегистрирован [ 2019-03-20 17:24 ] · BA5DA04C06052416E6C3B2EB26094C4D1EDC796D

Скачать .torrent

Скачать

15 KB

Статус: проверено
Скачан: 0 раз
Размер: 1,46 GB
terms.php
Профиль ЛС
Показать сообщения:    

Текущее время: 17-Ноя 16:03

Часовой пояс: UTC ± 0



Вы не можете начинать темы
Вы не можете отвечать на сообщения
Вы не можете редактировать свои сообщения
Вы не можете удалять свои сообщения
Вы не можете голосовать в опросах
Вы не можете прикреплять файлы к сообщениям
Вы можете скачивать файлы