Статистика раздачи
Размер:  2,31 GB   |    Зарегистрирован:  8 месяцев 24 дня   |    Скачан:  0 раз

Полного источника не было: Никогда

 
     
 
 

serzh ®

Пол:
Не указан
Стаж:
9 месяцев 1 день
Сообщений:
384

Нана / Nana: La vera chiave del piacere
Страна: Италия
Жанр: мелодрама, эротика
Год выпуска: 1983
Продолжительность: 01:32:11
Перевод: Одноголосый закадровый "Суки-Падлы"
Субтитры: нет
Оригинальная аудиодорожка: английский
Режиссер: Дэн Уолмен /Dan Wolman/
В ролях: Катя Бергер /Katya Berger/, Жан-Пьер Омон /Jean-Pierre Aumont/, Мэнди Райс-Дэвис /Mandy Rice-Davies/, Иегуда Эфрони /Yehuda Efroni/, Массимо Серато /Massimo Serato/, Дебра Бергер /Debra Berger/, Ширин Тейлор /Shirin Taylor/, Анни Бель /Annie Belle/, Пауль Мюллер /Paul Muller/...
Рецензия Михаила Иванова: Свободная экранизация романа Эмиля Золя. Уличной проститутке удается проникнуть в высшие сферы общества. И вы понимаете, каким именно способом. музыка Эннио Морриконе
Доп. информация: рип на сг для нас нашёл УЖЖЖАСТИК; любезно выкачал и прислал dffdfdfd; Суку-Падлу оцифровал с древней ЭЛЕКТРОНИКИ_ВК-180 и подготовил karlll
~СЭМПЛ~
Качество видео: WEB-DLRip-AVC
Формат видео: MKV
Видео: MPEG4 Video (H264) 1024x576 23.976fps 3265Kbps
Аудио 1: Dolby AC3 48KHz 2ch 192Kbps - рус
Аудио 2: MPEG Layer3 44.100kHz 2ch 128kbps - eng

MediaInfo

Format : Matroska
Format version : Version 2
File size : 2.31 GiB
Duration : 1 h 32 min
Overall bit rate : 3 587 kb/s
Movie name : Nana_1983_KBC
Encoded date : UTC 2019-03-19 23:21:11
Writing application : mkvmerge v6.9.1 ('Blue Panther') 32bit built on Apr 18 2014 18:15:44
Writing library : libebml v1.3.0 + libmatroska v1.4.1
Video
ID : 1
Format : AVC
Format/Info : Advanced Video Codec
Format profile : High@L5.1
Format settings : CABAC / 16 Ref Frames
Format settings, CABAC : Yes
Format settings, RefFrames : 16 frames
Codec ID : V_MPEG4/ISO/AVC
Duration : 1 h 32 min
Bit rate : 3 265 kb/s
Width : 1 024 pixels
Height : 576 pixels
Display aspect ratio : 16:9
Original display aspect ratio : 3.160
Frame rate mode : Constant
Frame rate : 23.976 (23976/1000) FPS
Color space : YUV
Chroma subsampling : 4:2:0
Bit depth : 8 bits
Scan type : Progressive
Bits/(Pixel*Frame) : 0.231
Stream size : 2.06 GiB (89%)
Title : Nana_1983
Writing library : x264 core 120 r2120bm 0c7dab9
Encoding settings : cabac=1 / ref=16 / deblock=1:0:0 / analyse=0x3:0x133 / me=umh / subme=10 / psy=1 / psy_rd=1.00:0.00 / mixed_ref=1 / me_range=24 / chroma_me=1 / trellis=2 / 8x8dct=1 / cqm=0 / deadzone=21,11 / fast_pskip=1 / chroma_qp_offset=-2 / threads=12 / sliced_threads=0 / nr=0 / decimate=1 / interlaced=0 / bluray_compat=0 / constrained_intra=0 / bframes=8 / b_pyramid=2 / b_adapt=2 / b_bias=0 / direct=3 / weightb=1 / open_gop=0 / weightp=2 / keyint=250 / keyint_min=23 / scenecut=40 / intra_refresh=0 / rc_lookahead=60 / rc=2pass / mbtree=1 / bitrate=3265 / ratetol=1.0 / qcomp=0.60 / qpmin=0 / qpmax=69 / qpstep=4 / cplxblur=20.0 / qblur=0.5 / ip_ratio=1.40 / aq=1:1.00
Language : Italian
Default : Yes
Forced : No
Audio #1
ID : 2
Format : AC-3
Format/Info : Audio Coding 3
Commercial name : Dolby Digital
Codec ID : A_AC3
Duration : 1 h 32 min
Bit rate mode : Constant
Bit rate : 192 kb/s
Channel(s) : 2 channels
Channel layout : L R
Sampling rate : 48.0 kHz
Frame rate : 31.250 FPS (1536 SPF)
Bit depth : 16 bits
Compression mode : Lossy
Stream size : 127 MiB (5%)
Title : рус
Language : Russian
Service kind : Complete Main
Default : Yes
Forced : No
Audio #2
ID : 3
Format : MPEG Audio
Format version : Version 1
Format profile : Layer 3
Format settings : Joint stereo / MS Stereo
Codec ID : A_MPEG/L3
Codec ID/Hint : MP3
Duration : 1 h 32 min
Bit rate mode : Constant
Bit rate : 128 kb/s
Channel(s) : 2 channels
Sampling rate : 44.1 kHz
Compression mode : Lossy
Stream size : 84.4 MiB (4%)
Title : eng
Language : English
Default : No
Forced : No

Скриншоты

ps

ИНЕССИКА С ДР!!!!!!
[cybertorrent.net].t1248.torrent 
Торрент: Зарегистрирован [ 2019-03-20 17:24 ] · 61987EEEEE24575F285C2BA44F287F8D64092503

Скачать .torrent

Скачать

12 KB

Статус: проверено
Скачан: 0 раз
Размер: 2,31 GB
terms.php
Профиль [ЛС]
Показать сообщения:    

Текущее время: 14-Дек 01:34

Часовой пояс: UTC ± 0



Вы не можете начинать темы
Вы не можете отвечать на сообщения
Вы не можете редактировать свои сообщения
Вы не можете удалять свои сообщения
Вы не можете голосовать в опросах
Вы не можете прикреплять файлы к сообщениям
Вы можете скачивать файлы