Статистика раздачи
Размер:  1,31 GB   |    Зарегистрирован:  7 месяцев 24 дня   |    Скачан:  0 раз

Полного источника не было: Никогда

 
     
 
 

Гость ®

Пол:
Не указан

Американские боги | American Gods- Год выпуска: 2019
Страна: США
Жанр: Фэнтези, драма, детектив
Продолжительность: ~ 01:00:00-Перевод: Профессиональный (многоголосый закадровый) | LostFilm-Режиссёр: Дэвид Слэйд, Крис Бирн, Адам Кэйн-В ролях: Рики Уиттл, Эмили Браунинг, Криспин Гловер, Брюс Лэнгли, Йетиде Бадаки, Пабло Шрайбер, Иэн Макшейн, Орландо Джонс, Муса Крэйиш, Омид Абтахи, Демор Барнс-Описание: Экранизация фантастического бестселлера Нила Геймана. Бывший заключённый Тень Мун устраивается на работу к таинственному незнакомцу по имени Мистер Среда, который оказывается воплощением верховного скандинавского бога Одина. Кроме него в Америке скрывается ещё целое множество героев древних мифов и преданий. Старые Боги потеряли своё могущество, уступив место Новым Американским Богам, порождённым массовой культурой. Между двумя пантеонами – древнего и современного мира – назревает война за веру людей. Тень не рад возвращению из тюрьмы – его отпустили из-за смерти жены в результате несчастного случая. Он едет на похороны, не переставая думать о своей жизни и своём месте в этом мире, который приносит ему столько горестей. С трудом попав на рейс, он переживает в самолёте сильнейший шторм. В салоне он встречает Мистера Среду, который знает о нём больше, чем Тень мог себе представить.- -[box=#aed8ff,#003465]Ссылка на предыдущие и альтернативные раздачи[/box]-Качество: WEBRip
Формат: AVI
Видео: XviD, 720x400 (16:9), 23,976 кадров/сек, ~1500 Кбит/сек
Аудио Rus: MP3, 48 kHz, 2 ch, 128 Кбит/сек | LostFilm
Аудио Eng: MP3, 48 kHz, 2 ch, 128 Кбит/сек
Субтитры: Русские, английские
Реклама: Отсутствует-

✘ Релиз ✘

Рип: DriverV
-

Список серий

01. Дом на скале / House on the Rock
02. Обольстительный человек / The Beguiling Man
03. Мунин / Muninn
04. Величайшая история из всех / The Greatest Story Ever Told
05. Пути мёртвых / The Ways of the Dead
06. Донар Великий / Donar the Great
07. Сокровище солнца / Treasure of the Sun
08. Лунная тень / Moon Shadow
-

MediaInfo

Общее
Полное имя : D:\Американские боги (сезон 2) American Gods (2019) WEBRip - LostFilm\American.Gods.S02E01.WEBRip.Rus.Eng.DV.LostFilm.avi
Формат : AVI
Формат/Информация : Audio Video Interleave
Размер файла : 675 Мбайт
Продолжительность : 53 м. 53 с.
Общий поток : 1752 Кбит/сек
Название фильма : American.Gods.S02E01.WEBRip.Rus.Eng.DV.LostFilm / NNM-Club
Программа кодирования : VirtualDubModRus 1.5.10.2 (build 2542/release)
Библиотека кодирования : VirtualDubMod build 2542/release
Видео
Идентификатор : 0
Формат : MPEG-4 Visual
Профиль формата : Advanced Simple@L5
Настройки формата : BVOP2
Параметр BVOP формата : 2
Параметр QPel формата : Нет
Параметр GMC формата : Без точки перехода
Параметр матрицы формата : Default (H.263)
Идентификатор кодека : XVID
Идентификатор кодека/Подсказка : XviD
Продолжительность : 53 м. 53 с.
Битрейт : 1482 Кбит/сек
Ширина : 720 пикселей
Высота : 400 пикселей
Соотношение сторон : 16:9
Частота кадров : 23,976 (24000/1001) кадра/сек
Цветовое пространство : YUV
Субдискретизация насыщенности : 4:2:0
Битовая глубина : 8 бит
Тип развёртки : Прогрессивная
Метод сжатия : С потерями
Бит/(Пиксели*Кадры) : 0.215
Размер потока : 571 Мбайт (85%)
Заголовок : Rip by DriverV / NNM-Club
Библиотека кодирования : XviD 67
Аудио #1
Идентификатор : 1
Формат : MPEG Audio
Версия формата : Version 1
Профиль формата : Layer 3
Настройки формата : Joint stereo / MS Stereo
Идентификатор кодека : 55
Идентификатор кодека/Подсказка : MP3
Продолжительность : 53 м. 53 с.
Вид битрейта : Постоянный
Битрейт : 128 Кбит/сек
Каналы : 2 канала
Частота : 48,0 КГц
Метод сжатия : С потерями
Размер потока : 49,3 Мбайт (7%)
Выравнивание : Соединение по промежуткам
Продолжительность промежутка : 42 мс. (1,00 видеокадр)
Время предзагрузки промежутка : 504 мс.
Аудио #2
Идентификатор : 2
Формат : MPEG Audio
Версия формата : Version 1
Профиль формата : Layer 3
Настройки формата : Joint stereo / MS Stereo
Идентификатор кодека : 55
Идентификатор кодека/Подсказка : MP3
Продолжительность : 53 м. 53 с.
Вид битрейта : Постоянный
Битрейт : 128 Кбит/сек
Каналы : 2 канала
Частота : 48,0 КГц
Метод сжатия : С потерями
Размер потока : 49,3 Мбайт (7%)
Выравнивание : Соединение по промежуткам
Продолжительность промежутка : 42 мс. (1,00 видеокадр)
Время предзагрузки промежутка : 504 мс.

Скриншоты

-

Внимание! Раздача ведётся путём добавления новых серий

Внимание! Раздача ведётся путём добавления новых серий; при каждом добавлении создаётся новый торрент. Чтобы начать докачку новой серии, пользователям необходимо сделать следующее:
(1) остановить скачивание,
(2) удалить старый торрент у себя из клиента (старые серии удалять не надо),
(3) скачать новый торрент и запустить его у себя в клиенте вместо старого, при этом указать клиенту путь в старую папку куда и должно происходить скачивание новых серий.
Ваш клиент при этом должен произвести хеширование (проверку) старой папки (если не производит сам - помогите ему сделать это), и будет докачивать только те серии которых у вас ещё нет. Старые серии при этом не удаляются, а продолжают раздаваться!
Eсли вы уже удалили старые серии, то предотвратить повторную закачку старых серий можно, отжав галочку в соответствующих местах при запуске нового торрента. По возможности, желательно не удалять старые серии как можно дольше чтобы релизёр не столько продолжал раздавать старые серии, а смог сконцентрироваться на новых.
[cybertorrent.net].t1244.torrent 
Торрент: Зарегистрирован [ 2019-03-20 17:24 ] · B07F111F0F83795787B9BF36282F9FA65430ED19

Скачать .torrent

Скачать

14 KB

Статус: проверено
Скачан: 0 раз
Размер: 1,31 GB
terms.php
Показать сообщения:    

Текущее время: 14-Ноя 08:33

Часовой пояс: UTC ± 0



Вы не можете начинать темы
Вы не можете отвечать на сообщения
Вы не можете редактировать свои сообщения
Вы не можете удалять свои сообщения
Вы не можете голосовать в опросах
Вы не можете прикреплять файлы к сообщениям
Вы можете скачивать файлы