Статистика раздачи
Размер:  1,45 GB   |    Зарегистрирован:  7 месяцев 26 дней   |    Скачан:  0 раз

Полного источника не было: Никогда

 
     
 
 

солнышко ®

Пол:
Не указан
Стаж:
8 месяцев 3 дня
Сообщений:
565

Экстаз / Climax
Страна: Франция, Бельгия, США
Жанр: триллер, драма
Год выпуска: 2018
Продолжительность: 01:36:30-Перевод: Профессиональный (дублированный) | iTunes
Субтитры: нет
Оригинальная аудиодорожка: нет-Режиссер: Гаспар Ноэ / Gaspar Noé-В ролях: София Бутелла, Ромен Гийермик, Сухейла Якуб, Смайл Кидди, Клод Гаян Малл, Жизелль Палмер, Тейлор Кастл, Теа Карла Шотт, Шерлин Темпл, Леа Вламос, Алайя Альсафир, Кендалл Маглер, Лакдхар Дриди, Эдриан Сиссоко, Мамаду Батили, Alou Sidibé, Эшли Бисетт, Mounia Nassangar, Tiphanie Au, Сара Белала, Alexandre Moreau, Naab, Strauss Serpent, Vince Galliot Cumant-Описание: Рождение и смерть — невероятный опыт, а жизнь — ускользающее наслаждение. Выпускники академии современного танца решают устроить прощальную вечеринку. Однако таинственным образом под нарастающий ритм музыки их всех охватывает эйфория, которой невозможно сопротивляться. Теперь балом правит зловещий хаос и спасение можно найти, только отдав свою душу танцу. Для одних эта ночь обернется суровым испытанием, а другие познают настоящий экстаз…- -Качество видео: BDRip | Climax.2018.1080p.BluRay.REMUX.DTS-HD.MA.5.1-HDH
Формат видео: AVI
Видео: 720x304 (2.37:1), 23.976 fps, XviD build 73 ~1765 kbps avg, 0.34 bit/pixel
Аудио: 48 kHz, AC3 Dolby Digital, 3/2 (L,C,R,l,r) + LFE ch, ~384 kbps-[box]Сэмпл[/box]-

MediaInfo

Код:Формат : AVI
Формат/Информация : Audio Video Interleave
Размер файла : 1,45 Гбайт
Продолжительность : 1 ч. 36 м.
Общий поток : 2159 Кбит/сек
Программа кодирования : VirtualDubMod 1.5.10.3 | www.virtualdub-fr.org || (build 2550/release)
Библиотека кодирования : VirtualDubMod build 2550/release
Видео
Идентификатор : 0
Формат : MPEG-4 Visual
Профиль формата : Advanced Simple@L5
Настройки формата : BVOP1 / Custom Matrix
Параметр BVOP формата : 1
Параметр QPel формата : Нет
Параметр GMC формата : Без точки перехода
Параметр матрицы формата : Выборочная
Идентификатор кодека : XVID
Идентификатор кодека/Подсказка : XviD
Продолжительность : 1 ч. 36 м.
Битрейт : 1765 Кбит/сек
Ширина : 720 пикселей
Высота : 304 пикселя
Соотношение сторон : 2,35:1
Частота кадров : 23,976 (24000/1001) кадра/сек
Цветовое пространство : YUV
Субдискретизация насыщенности : 4:2:0
Битовая глубина : 8 бит
Тип развёртки : Прогрессивная
Метод сжатия : С потерями
Бит/(Пиксели*Кадры) : 0.336
Размер потока : 1,19 Гбайт (82%)
Библиотека кодирования : XviD 73
Аудио
Идентификатор : 1
Формат : AC-3
Формат/Информация : Audio Coding 3
Коммерческое название : Dolby Digital
Идентификатор кодека : 2000
Продолжительность : 1 ч. 36 м.
Вид битрейта : Постоянный
Битрейт : 384 Кбит/сек
Каналы : 6 каналов
Channel layout : L R C LFE Ls Rs
Частота : 48,0 КГц
Частота кадров : 31,250 кадров/сек (1536 SPF)
Битовая глубина : 16 бит
Метод сжатия : С потерями
Размер потока : 265 Мбайт (18%)
Выравнивание : Разделение по промежуткам
Продолжительность промежутка : 42 мс. (1,00 видеокадр)
Время предзагрузки промежутка : 500 мс.
ServiceKind/String : Complete Main

Скриншоты


[cybertorrent.net].t1241.torrent 
Торрент: Зарегистрирован [ 2019-03-20 17:24 ] · 65BA51DCC7A8CE9301A8E18B5993B124151E06B6

Скачать .torrent

Скачать

15 KB

Статус: проверено
Скачан: 0 раз
Размер: 1,45 GB
terms.php
Профиль ЛС
Показать сообщения:    

Текущее время: 15-Ноя 21:00

Часовой пояс: UTC ± 0



Вы не можете начинать темы
Вы не можете отвечать на сообщения
Вы не можете редактировать свои сообщения
Вы не можете удалять свои сообщения
Вы не можете голосовать в опросах
Вы не можете прикреплять файлы к сообщениям
Вы можете скачивать файлы