Статистика раздачи
Размер:  902 MB   |    Зарегистрирован:  8 месяцев 1 день   |    Скачан:  0 раз

Полного источника не было: Никогда

 
     
 
 

Гость ®

Пол:
Не указан

Адаптация - 2 Сезон- Год выпуска: 2019
Производство: Good Story Media по заказу телеканала ТНТ
Жанр: Комедия
Продолжительность: 00:24:48
Субтитры: нет
Режиссёр: Александр Назаров
В ролях: Леонид Бичевин, Юрий Стоянов, Питер Джейкобсон, Евгения Брик, Артур Бесчастный, Ася Дубровская, Аружан Джазильбекова, Елена Ласкавая, Нелли Уварова, Александр Лыков, Александр Ильин
Описание: Агент ЦРУ Эштон Айви возвращается в Ноябрьск, чтобы забрать в Америку свою любовь Марину, а заодно помочь России защитить свои природные богатства. В Ноябрьске нет Диснейленда, знаменитой картинной галереи или шикарного пляжа. Здесь даже собора со шпилем нет. Тем не менее этот город регулярно посещают сомнительные личности вроде американского шпиона Эштона Айви. Вот и сейчас агент снова в России. Он далеко не новичок, поэтому прибыл в Ноябрьск один, без прикрытия ЦРУ. Главная задача Айви в этот раз — увезти в Штаты свою любимую женщину Марину. Ради нее он готов рискнуть не только своей карьерой, но и жизнью. Сумев улизнуть от бывших коллег, он тут же попал на крючок российских спецслужб. Его оппонент – полковник контрразведки Евдокимов вербует американца и вынуждает принять участие в операции государственной важности. Китайские товарищи положили глаз на российский газ и хотят забрать себе стратегическое месторождение. Ради обретения своей любимой Эштону придется принять предложение, поэтому американцу ничего не остается кроме как сказать: «Служу России!».-Сэмпл: http://multi-up.com/1226829-Релиз от: 25Kuzmich-Качество: WEBRip
Формат: AVI
Видео кодек: XviD
Аудио кодек: AC3
Видео: 720x400 (16:9), 25.000 fps, XviD, 1493 Kbps, 0.20 bit/pixel
Аудио: 48 kHz, AC3, 2/0 (L,R) ch, 192.00 kbps-Реклама: Нет-Предыдущие и альтернативные раздачи-

MI

General
Complete name : Downloads\Adaptatsiya.S02.WEB-DLRip.25Kuzmich\Adaptatsiya.s02.e01.WEB-DLRip.25Kuzmich.avi
Format : AVI
Format/Info : Audio Video Interleave
File size : 301 MiB
Duration : 24mn 48s
Overall bit rate : 1 695 Kbps
Writing application : VirtualDubMod 1.5.10.3 | www.virtualdub-fr.org || (build 2550/release)
Writing library : VirtualDubMod build 2550/release
Video #0
ID : 0
Format : MPEG-4 Visual
Format profile : Advanced Simple@L5
Format settings, BVOP : 1
Format settings, QPel : No
Format settings, GMC : No warppoints
Format settings, Matrix : Default (MPEG)
Codec ID : XVID
Codec ID/Hint : XviD
Duration : 24mn 48s
Bit rate : 1 493 Kbps
Width : 720 pixels
Height : 400 pixels
Display aspect ratio : 16:9
Frame rate : 25.000 fps
Color space : YUV
Chroma subsampling : 4:2:0
Bit depth : 8 bits
Scan type : Progressive
Compression mode : Lossy
Bits/(Pixel*Frame) : 0.207
Stream size : 265 MiB (88%)
Writing library : XviD 73
Audio #1
ID : 1
Format : AC-3
Format/Info : Audio Coding 3
Mode extension : CM (complete main)
Format settings, Endianness : Big
Codec ID : 2000
Duration : 24mn 48s
Bit rate mode : Constant
Bit rate : 192 Kbps
Channel(s) : 2 channels
Channel positions : Front: L R
Sampling rate : 48.0 KHz
Bit depth : 16 bits
Compression mode : Lossy
Stream size : 34.1 MiB (11%)
Alignment : Split accross interleaves
Interleave, duration : 40 ms (1.00 video frame)
Interleave, preload duration : 500 ms

Скриншоты

Внимание! Раздача ведётся путём добавления новых серий:

(1) остановить скачивание,
(2) удалить старый торрент у себя из клиента (старые серии удалять не надо),
(3) скачать новый торрент и запустить его у себя в клиенте вместо старого, при этом указать клиенту путь в старую папку куда и должно происходить скачивание новых серий.
Ваш клиент при этом должен произвести хеширование (проверку) старой папки (если не производит сам - помогите ему сделать это), и будет докачивать только те серии которых у вас ещё нет. Старые серии при этом не удаляются, а продолжают раздаваться!
Eсли вы уже удалили старые серии, то предотвратить повторную закачку старых серий можно, отжав галочку в соответсвующих местах при запуске нового торрента. По возможности, желательно не удалять старые серии как можно дольше чтобы релизёр не столько продолжал раздавать старые серии, а смог сконцентрироваться на новых
.
[cybertorrent.net].t1209.torrent 
Торрент: Зарегистрирован [ 2019-03-19 18:34 ] · 12BC5C3D8B502AF8EE2D61871348675760E38A50

Скачать .torrent

Скачать

18 KB

Статус: проверено
Скачан: 0 раз
Размер: 902 MB
terms.php
Показать сообщения:    

Текущее время: 21-Ноя 01:10

Часовой пояс: UTC ± 0



Вы не можете начинать темы
Вы не можете отвечать на сообщения
Вы не можете редактировать свои сообщения
Вы не можете удалять свои сообщения
Вы не можете голосовать в опросах
Вы не можете прикреплять файлы к сообщениям
Вы можете скачивать файлы