Статистика раздачи
Размер:  8,17 GB   |    Зарегистрирован:  7 месяцев 25 дней   |    Скачан:  0 раз

Полного источника не было: Никогда

 
     
 
 

Гость ®

Пол:
Не указан

Пилот международных авиалиний- Год выпуска: 2011
Производство: «ПЦ "Пирамида"»
Жанр: Криминальный фильм, мелодрама
Продолжительность: ~ 43 мин.
Субтитры: Отсутствуют-Режиссер: Армен Арутюнян-Елецкий-В ролях: Александр Домогаров, Кирилл Сафонов, Дмитрий Нагиев, Карина Разумовская, Евгения Туркова, Татьяна Черкасова, Артур Ваха, Татьяна Космачёва, Людмила Полякова, Юрий Кузьменков, Армандс Нейландс-Яунземс, Михаил Бабичев, Евгений Данчевский, Вадим Андреев, Андрей Руденский, Дмитрий Блохин, Алексей Дмитриев, Ирина Салтыкова, Надежда Евтехова, Натали Старынкевич, Олег Чевелёв, Максим Пинскер, Дмитрий Комов, Сергей Жарков, Михаил Богдасаров, Анна Данькова, Елена Субботина, Алексей Шикин (II), Алексей Парасич, Ирина Темичева, Павел Абраменков, Виктор Хориняк, Ксения Суркова, Анна Владимирова, Филипп Орешенков, Станислав Дьяченко, Александр Базоев, Анна Бояджи и др.-Описание: Друзья Степанов и Мечников - пилоты гражданской авиации - из-за нештатной ситуации во время полета сажают лайнер прямо на трассу. На время расследования аварии пилотов отстраняют от работы, и Мечников отправляется на поиски затонувшего под Чернолесском фашистского самолета, на борту которого должен быть изумрудный ларец императрицы Анны Иоанновны. А Александр Степанов начинает собственное расследование гибели супруги. В расследовании ему помогает Емельян Стрешнёв.-Релиз группы -Все раздачи сериала
Семпл
Кино-Театр-Качество: SATRip
Формат: AVI
Видео кодек: XviD
Аудио кодек: AC3
Видео: 720x400 (1.80:1), 25 fps, XviD build 73 ~1499 kbps avg, 0.21 bit/pixel
Аудио: 48 kHz, AC3 Dolby Digital, 2/0 (L,R) ch, ~192.00 kbps avg

MediaInfo

Код:General
Complete name : D:\Пилот.международных.авиалиний\Pilot.mejdunarodnih.avialinii.s01e01.2011.SATRip.RG.Russkie.serialy.avi
Format : AVI
Format/Info : Audio Video Interleave
File size : 500 MiB
Duration : 41mn 6s
Overall bit rate : 1 702 Kbps
Writing application : VirtualDubMod 1.5.10.3 | www.virtualdub-fr.org || (build 2550/release)
Writing library : VirtualDubMod build 2550/release
Video
ID : 0
Format : MPEG-4 Visual
Format profile : Advanced Simple@L5
Format settings, BVOP : 2
Format settings, QPel : No
Format settings, GMC : No warppoints
Format settings, Matrix : Custom
Codec ID : XVID
Codec ID/Hint : XviD
Duration : 41mn 6s
Bit rate : 1 500 Kbps
Width : 720 pixels
Height : 400 pixels
Display aspect ratio : 16:9
Frame rate : 25.000 fps
Color space : YUV
Chroma subsampling : 4:2:0
Bit depth : 8 bits
Scan type : Progressive
Compression mode : Lossy
Bits/(Pixel*Frame) : 0.208
Stream size : 441 MiB (88%)
Writing library : XviD 73
Audio
ID : 1
Format : AC-3
Format/Info : Audio Coding 3
Mode extension : CM (complete main)
Format settings, Endianness : Big
Codec ID : 2000
Duration : 41mn 6s
Bit rate mode : Constant
Bit rate : 192 Kbps
Channel(s) : 2 channels
Channel positions : Front: L R
Sampling rate : 48.0 KHz
Bit depth : 16 bits
Compression mode : Lossy
Stream size : 56.4 MiB (11%)
Alignment : Split accross interleaves
Interleave, duration : 40 ms (1.00 video frame)
Interleave, preload duration : 500 ms

Скриншоты








[cybertorrent.net].t1165.torrent 
Торрент: Зарегистрирован [ 2019-03-19 18:34 ] · 6AD38910B2836E8098272B6A063DE618A064758D

Скачать .torrent

Скачать

43 KB

Статус: проверено
Скачан: 0 раз
Размер: 8,17 GB
terms.php
Показать сообщения:    

Текущее время: 14-Ноя 09:23

Часовой пояс: UTC ± 0



Вы не можете начинать темы
Вы не можете отвечать на сообщения
Вы не можете редактировать свои сообщения
Вы не можете удалять свои сообщения
Вы не можете голосовать в опросах
Вы не можете прикреплять файлы к сообщениям
Вы можете скачивать файлы