Статистика раздачи
Размер:  2,12 GB   |    Зарегистрирован:  6 месяцев 26 дней   |    Скачан:  0 раз

Полного источника не было: Никогда

   
 

Гость ®

Пол:
Не указан

Повезёт в любви- Год выпуска: 2012
Производство: «Студия Анкор», «Маркес» по заказу телеканала «Россия-1»
Жанр: Мелодрама
Продолжительность: ~ 45 мин.
Субтитры: Отсутствуют-Режиссер: Ольга Доброва-Куликова-В ролях: Анна Горшкова, Станислав Бондаренко, Андрей Финягин, Алёна Яковлева, Юрий Шлыков, Дмитрий Ратомский, Елизавета Лотова, Мария Добржинская, Полина Беленькая, Елена Ермолаева, Кристина Брыкова, Антонина Комиссарова, Вадим Курилов, Ирина Новикова, Елена Петрова, Никита Щукин, Виктор Пипа, Ольга Спиркина, Оксана Сташенко, Юлия Чиплиева и др.-Описание: Однажды встретившись, Алиса и Костя с первого взгляда понимают, что рождены друг для друга. Однако вместе с любовью в их жизнь приходят проблемы: на работе, в быту, со здоровьем. Измученная Алиса идет к астрологу и слышит приговор: им с Костей нельзя быть вместе, иначе их ждет судьба неудачников и преждевременная гибель. Алиса не верит в предсказанье, но неприятности продолжаются. Герои молоды, честолюбивы и хотят быть успешными и счастливыми. Алиса и Костя расстаются. Спустя годы у них есть всё – кроме любви…-Релиз группы -Все раздачи сериала
Семпл
Кино-Театр-Качество:SATRip
Формат: AVI
Видео кодек: XviD
Аудио кодек: AC3
Видео: 720x400 (1.80:1), 25 fps, XviD build 73 ~1499 kbps avg, 0.21 bit/pixel
Аудио: 48 kHz, AC3 Dolby Digital, 2/0 (L,R) ch, ~192.00 kbps avg

MediaInfo

Код:General
Complete name : D:\Повезёт в любви\Povezet.v.lyubvi.S01E01.2012.SATRip.RG.Russkie.serialy.avi
Format : AVI
Format/Info : Audio Video Interleave
File size : 558 MiB
Duration : 45mn 50s
Overall bit rate : 1 702 Kbps
Writing application : VirtualDubMod 1.5.10.3 | www.virtualdub-fr.org || (build 2550/release)
Writing library : VirtualDubMod build 2550/release
Video
ID : 0
Format : MPEG-4 Visual
Format profile : Advanced Simple@L5
Format settings, BVOP : 2
Format settings, QPel : No
Format settings, GMC : No warppoints
Format settings, Matrix : Custom
Codec ID : XVID
Codec ID/Hint : XviD
Duration : 45mn 50s
Bit rate : 1 500 Kbps
Width : 720 pixels
Height : 400 pixels
Display aspect ratio : 16:9
Frame rate : 25.000 fps
Color space : YUV
Chroma subsampling : 4:2:0
Bit depth : 8 bits
Scan type : Progressive
Compression mode : Lossy
Bits/(Pixel*Frame) : 0.208
Stream size : 492 MiB (88%)
Writing library : XviD 73
Audio
ID : 1
Format : AC-3
Format/Info : Audio Coding 3
Mode extension : CM (complete main)
Format settings, Endianness : Big
Codec ID : 2000
Duration : 45mn 50s
Bit rate mode : Constant
Bit rate : 192 Kbps
Channel(s) : 2 channels
Channel positions : Front: L R
Sampling rate : 48.0 KHz
Bit depth : 16 bits
Compression mode : Lossy
Stream size : 62.9 MiB (11%)
Alignment : Split accross interleaves
Interleave, duration : 40 ms (1.00 video frame)
Interleave, preload duration : 500 ms

Скриншоты








[cybertorrent.net].t1162.torrent 
Торрент: Зарегистрирован [ 2019-03-19 18:34 ] · BD93A3A3C5B38BA529801071E357459DD922342F

Скачать .torrent

Скачать

11 KB

Статус: проверено
Скачан: 0 раз
Размер: 2,12 GB
terms.php
Показать сообщения:    

Текущее время: 15-Окт 06:35

Часовой пояс: UTC ± 0



Вы не можете начинать темы
Вы не можете отвечать на сообщения
Вы не можете редактировать свои сообщения
Вы не можете удалять свои сообщения
Вы не можете голосовать в опросах
Вы не можете прикреплять файлы к сообщениям
Вы можете скачивать файлы