Статистика раздачи
Размер:  1,6 GB   |    Зарегистрирован:  7 месяцев 26 дней   |    Скачан:  0 раз
DL-List: Нет

Полного источника не было: Никогда

 
     
 
 

Гость ®

Пол:
Не указан

Виски Кавалер | Whiskey Cavalier- Год выпуска: 2019
Страна: США
Жанр: Боевик, триллер, драма, комедия, приключения
Продолжительность: ~ 00:43:00-Перевод: Профессиональный (дублированный) | SDI Media-Режиссёр: Питер Атенсио, Джон Ист, Роб Бэйли-В ролях: Скотт Фоули, Лорен Кохэн, Ана Ортис, Тайлер Джеймс Уильямс, Вир Даc, Дилан Уолш, Джош Хопкинс, Дэвид Финн, Кристос Василопулос, Аликс Бенезек, Ядран Малжкович и др.-Описание: Агент ФБР Уилл Чейз, известный под кодовым именем Виски Кавалер, — парень что надо. Бьёт наотмашь, стреляет наповал и живёт жизнью, полной приключений. Одна проблема: Чейз сентиментален, регулярно поддаётся чувствам и даже может всплакнуть из-за бросившей его подружки. В напарники ему назначают оперативницу ЦРУ Франческу «Фрэнки» Троубридж. Она прагматична, бескомпромиссна и сопли пускать не будет.
Вместе с ней Чейз организует команду шпионов, периодически спасает мир, ищет баланс между флиртом и дружбой, а главное — учится не давать волю эмоциям. Последнее окажется почти невыполнимым.- -[box=#aed8ff,#003465]Ссылка на предыдущие и альтернативные раздачи[/box]-Качество: WEB-DLRip
Формат: AVI
Видео: XviD, 720x400 (16:9), 23.976 кадров/сек, ~1500 Кбит/сек
Аудио Rus: MP3, 48 kHz, 2 ch, 128 Кбит/сек | SDI Media
Аудио Eng: MP3, 48 kHz, 2 ch, 128 Кбит/сек
Субтитры: Русские (Full), английские (SDH)
Реклама: Отсутствует-

Список серий

01. Pilot / Пилот
02. The Czech List / Чешский список
03. When in Rome / Однажды в Риме
-

MediaInfo

Общее
Полное имя : E:\Whiskey Cavalier (Season 1) WEB-DLRip\Whiskey.Cavalier.S01E01.WEB-DLRip.RGzsRutracker.[Wentworth_Miller].avi
Формат : AVI
Формат/Информация : Audio Video Interleave
Размер файла : 546 Мбайт
Продолжительность : 43 м. 7 с.
Общий поток : 1770 Кбит/сек
Программа кодирования : VirtualDubMod 1.5.10.3 | www.virtualdub-fr.org || (build 2550/release)
Библиотека кодирования : VirtualDubMod build 2550/release
Видео
Идентификатор : 0
Формат : MPEG-4 Visual
Профиль формата : Advanced Simple@L5
Настройки формата : BVOP2
Параметр BVOP формата : 2
Параметр QPel формата : Нет
Параметр GMC формата : Без точки перехода
Параметр матрицы формата : Default (MPEG)
Идентификатор кодека : XVID
Идентификатор кодека/Подсказка : XviD
Продолжительность : 43 м. 7 с.
Битрейт : 1500 Кбит/сек
Ширина : 720 пикселей
Высота : 400 пикселей
Соотношение сторон : 16:9
Частота кадров : 23,976 (24000/1001) кадра/сек
Цветовое пространство : YUV
Субдискретизация насыщенности : 4:2:0
Битовая глубина : 8 бит
Тип развёртки : Прогрессивная
Метод сжатия : С потерями
Бит/(Пиксели*Кадры) : 0.217
Размер потока : 463 Мбайт (85%)
Библиотека кодирования : XviD 73
Аудио #1
Идентификатор : 1
Формат : MPEG Audio
Версия формата : Version 1
Профиль формата : Layer 3
Идентификатор кодека : 55
Идентификатор кодека/Подсказка : MP3
Продолжительность : 43 м. 7 с.
Вид битрейта : Постоянный
Битрейт : 128 Кбит/сек
Каналы : 2 канала
Частота : 48,0 КГц
Частота кадров : 41,667 кадра/сек (1152 SPF)
Метод сжатия : С потерями
Размер потока : 39,5 Мбайт (7%)
Выравнивание : Соединение по промежуткам
Продолжительность промежутка : 42 мс. (1,00 видеокадр)
Время предзагрузки промежутка : 504 мс.
Библиотека кодирования : LAME3.99r
Настройки программы : -m s -V 4 -q 2 -lowpass 17 -b 128
Аудио #2
Идентификатор : 2
Формат : MPEG Audio
Версия формата : Version 1
Профиль формата : Layer 3
Настройки формата : Joint stereo / MS Stereo
Идентификатор кодека : 55
Идентификатор кодека/Подсказка : MP3
Продолжительность : 43 м. 7 с.
Вид битрейта : Постоянный
Битрейт : 128 Кбит/сек
Каналы : 2 канала
Частота : 48,0 КГц
Метод сжатия : С потерями
Размер потока : 39,5 Мбайт (7%)
Выравнивание : Соединение по промежуткам
Продолжительность промежутка : 42 мс. (1,00 видеокадр)
Время предзагрузки промежутка : 504 мс.
Библиотека кодирования : LAME3.97
-

Скриншоты

-

Внимание! Раздача ведётся путём добавления новых серий

Внимание! Раздача ведётся путём добавления новых серий; при каждом добавлении создаётся новый торрент. Чтобы начать докачку новой серии, пользователям необходимо сделать следующее:
(1) остановить скачивание,
(2) удалить старый торрент у себя из клиента (старые серии удалять не надо),
(3) скачать новый торрент и запустить его у себя в клиенте вместо старого, при этом указать клиенту путь в старую папку куда и должно происходить скачивание новых серий.
Ваш клиент при этом должен произвести хеширование (проверку) старой папки (если не производит сам - помогите ему сделать это), и будет докачивать только те серии которых у вас ещё нет. Старые серии при этом не удаляются, а продолжают раздаваться!
Eсли вы уже удалили старые серии, то предотвратить повторную закачку старых серий можно, отжав галочку в соответствующих местах при запуске нового торрента. По возможности, желательно не удалять старые серии как можно дольше чтобы релизёр не столько продолжал раздавать старые серии, а смог сконцентрироваться на новых.
[cybertorrent.net].t1138.torrent 
Торрент: Зарегистрирован [ 2019-03-19 18:34 ] · 0148EF991A0D157D811D9C443CEEACA0C8BD3F23

Скачать .torrent

Скачать

17 KB

Статус: проверено
Скачан: 0 раз
Размер: 1,6 GB
terms.php
Показать сообщения:    

Текущее время: 15-Ноя 05:18

Часовой пояс: UTC ± 0



Вы не можете начинать темы
Вы не можете отвечать на сообщения
Вы не можете редактировать свои сообщения
Вы не можете удалять свои сообщения
Вы не можете голосовать в опросах
Вы не можете прикреплять файлы к сообщениям
Вы можете скачивать файлы