Статистика раздачи
Размер:  777 MB   |    Зарегистрирован:  5 дней   |    Скачан:  0 раз

Полного источника не было: Никогда

 
     
 
 

алексей ®

Пол:
Не указан
Стаж:
7 месяцев
Сообщений:
22

С любовью пополам
Жанр: драма
Год выпуска: 1979
Продолжительность: 1:22:25
Режиссёр: Сергей Микаэлян
В ролях: Семён Морозов, Велко Канев, Росица Петрова, Вероника Изотова, Борислав Брондуков, Пётр Щербаков, Виктор Сергачёв, Георгий Русев, Богомил Симеонов, Татьяна Конюхова, Стефан Костов, Михаил Малиновский, Владимир Самойлов, Вадим Андреев, Валентина Владимирова
Описание: На одном из участков строительства газопровода «Дружба» работают советские и болгарские специалисты: рабочие, инженеры и студенты-практиканты, изучающие влияние строящегося объекта на гидрологию почвы. Петко Тошев и Костя Коротков, бригадиры трубоукладчиков, настаивают на изменении маршрута трассы ради спасения тридцати гектаров плодородной земли.
Семпл: http://sendfile.su/1540816
Качество видео: DVB
Формат видео: MKV
Видео: MPEG4 AVC 720x576 (16:9) 25,000 кадров/сек 1118 Кбит/сек
Аудио: MPEG1 Layer 2 48,0 КГц 2 канала 192 Кбит/сек Русский

MediaInfo

Общее
Уникальный идентификатор : 90751269363346586506436733054996673943 (0x44460F07FFB1D7E156B5491294A77597)
Полное имя : M:\Torrents\СВОИ\С любовью пополам.mkv
Формат : Matroska
Версия формата : Version 4
Размер файла : 777 Мбайт
Продолжительность : 1 ч. 22 м.
Общий поток : 1318 Кбит/сек
Дата кодирования : UTC 2019-12-31 15:14:27
Программа кодирования : mkvmerge v38.0.0 ('The Silent Type') 64-bit
Библиотека кодирования : libebml v1.3.9 + libmatroska v1.5.2
Видео
Идентификатор : 1
Формат : AVC
Формат/Информация : Advanced Video Codec
Профиль формата : High@L3
Настройки формата : CABAC / 4 Ref Frames
Параметр CABAC формата : Да
Параметр RefFrames формата : 4 кадра
Идентификатор кодека : V_MPEG4/ISO/AVC
Продолжительность : 1 ч. 22 м.
Битрейт : 1118 Кбит/сек
Ширина : 720 пикселей
Высота : 576 пикселей
Соотношение сторон : 16:9
Режим частоты кадров : Переменный
Частота кадров : 49,903 кадров/сек
Частота кадров в оригинале : 25,000 кадров/сек
Стандарт вещания : Component
Цветовое пространство : YUV
Субдискретизация насыщенности : 4:2:0
Битовая глубина : 8 бит
Тип развёртки : Чересстрочная
Метод сохранения типа развёртки : Раздельные поля
Порядок развёртки : Верхнее поле первое
Бит/(Пиксели*Кадры) : 0.054
Размер потока : 659 Мбайт (85%)
Default : Да
Forced : Нет
Цветовой диапазон : Limited
Основные цвета : BT.601 PAL
Характеристики трансфера : BT.470 System B/G
Коэффициенты матрицы : BT.470 System B/G
Аудио
Идентификатор : 2
Формат : MPEG Audio
Версия формата : Version 1
Профиль формата : Layer 2
Идентификатор кодека : A_MPEG/L2
Идентификатор кодека/Подсказка : MP2
Продолжительность : 1 ч. 22 м.
Вид битрейта : Постоянный
Битрейт : 192 Кбит/сек
Каналы : 2 канала
Частота : 48,0 КГц
Частота кадров : 41,666 кадра/сек (1152 SPF)
Метод сжатия : С потерями
Задержка видео : -10 мс.
Размер потока : 113 Мбайт (15%)
Язык : Russian
Default : Да
Forced : Нет

Скриншоты


[cybertorrent.net].t10800.torrent 
Торрент: Зарегистрирован [ 2020-01-12 17:30 ] · FC81FE1B2532E3EB15C6E782F157CCFD97B1E886

Скачать .torrent

Скачать

16 KB

Статус: проверено
Скачан: 0 раз
Размер: 777 MB
terms.php
Профиль [ЛС]
Показать сообщения:    

Текущее время: 17-Янв 23:03

Часовой пояс: UTC ± 0



Вы не можете начинать темы
Вы не можете отвечать на сообщения
Вы не можете редактировать свои сообщения
Вы не можете удалять свои сообщения
Вы не можете голосовать в опросах
Вы не можете прикреплять файлы к сообщениям
Вы можете скачивать файлы