Статистика раздачи
Размер:  190 MB   |    Зарегистрирован:  5 месяцев 26 дней   |    Скачан:  0 раз
DL-List: Нет

Полного источника не было: Никогда

 
     
 
 

karlll ®

Пол:
Не указан
Стаж:
1 год 3 месяца
Сообщений:
196

Как лиска Лариска клад искала
Страна: СССР
Жанр: кукольный фильм
Продолжительность: 00:15:26
Год выпуска: 1973
Режиссёр: Михаил Шаров
Описание: По мотивам сказок Станислава Мальцева.
Как зайка Петя проучил лиску Лариску и её дружков, разоривших погреб дедушки Трезора.
Качество: WEBRip
Формат: AVI
Видео: 1584 kbps, 640х480 (4:3), 25.000 fps, MPEG-4 Visual (XviD)
Аудио: 128 kbps, 44.1 kHz, 2 channels, MPEG Audio (MP3)
Субтитры: отсутствуют

Подробные технические данные

General
Complete name : Как лиска Лариска клад искала.avi
Format : AVI
Format/Info : Audio Video Interleave
File size : 190 MiB
Duration : 15mn 26s
Overall bit rate : 1 722 Kbps
Writing application : VirtualDubMod 1.5.10.2 (build 2540/release)
Writing library : VirtualDubMod build 2540/release
Video
ID : 0
Format : MPEG-4 Visual
Codec ID : FMP4
Duration : 15mn 26s
Bit rate : 1 584 Kbps
Width : 640 pixels
Height : 480 pixels
Display aspect ratio : 4:3
Frame rate : 25.000 fps
Color space : YUV
Chroma subsampling : 4:2:0
Compression mode : Lossy
Bits/(Pixel*Frame) : 0.206
Stream size : 175 MiB (92%)
Audio
ID : 1
Format : MPEG Audio
Format version : Version 1
Format profile : Layer 3
Mode : Joint stereo
Mode extension : MS Stereo
Codec ID : 55
Codec ID/Hint : MP3
Duration : 15mn 26s
Bit rate mode : Constant
Bit rate : 128 Kbps
Channel(s) : 2 channels
Sampling rate : 44.1 KHz
Compression mode : Lossy
Stream size : 14.1 MiB (7%)
Alignment : Split accross interleaves
Interleave, duration : 40 ms (1.00 video frame)
Interleave, preload duration : 500 ms
Writing library : LAME3.99.5

Скриншоты

[cybertorrent.net].t10797.torrent 
Торрент: Зарегистрирован [ 2020-01-12 17:30 ] · 08642D266AD8082606FA877CFE1D93A8737A2DA8

Скачать .torrent

Скачать

15 KB

Статус: проверено
Скачан: 0 раз
Размер: 190 MB  ·  Тип торрента
terms.php
Профиль [ЛС]
Показать сообщения:    

Текущее время: 08-Июл 11:15

Часовой пояс: UTC ± 0



Вы не можете начинать темы
Вы не можете отвечать на сообщения
Вы не можете редактировать свои сообщения
Вы не можете удалять свои сообщения
Вы не можете голосовать в опросах
Вы не можете прикреплять файлы к сообщениям
Вы можете скачивать файлы