Статистика раздачи
Размер:  2,18 GB   |    Зарегистрирован:  8 месяцев 20 дней   |    Скачан:  0 раз

Полного источника не было: Никогда

 
     
 
 

Гость ®

Пол:
Не указан

Проданный смех (2 серии)- Жанр: музыкальная сказка
Год выпуска: 1981
Продолжительность: 02:10:22-Режиссёр: Леонид Нечаев-В ролях:
Павел Кадочников, Александр Галевский, Катин-Ярцев, Александр Продан, Евгения Григорьева, Игорь Дмитриев, Борислав Брондуков, Гасан Мамедов, Федор Никитин, Надежда Румянцева, Екатерина Васильева, Наталья Гундарева, Елена Морозова, Дмитрий Иосифов
Описание:
По мотивам повести Д. Крюса. Фильм рассказывает о том, как в обмен на невероятный дар, позволяющий выигрывать любое пари, мальчик Тим Таллер отдал свой смех.-Исходник | Сэмпл | Кинопоиск-Качество видео: SATRip-AVC, за исходник спасибо Cheef mate
Формат видео: MKV
Видео: x264 (High@L4.1); 694@757x572 25.000 fps; Display aspect ratio: 1.323:1; 2200 Kbps
Аудио: AC-3; 16 bits 48 Khz; 2.0ch 192 Kbps; CBR

Доп. инфо

* В пределах возможного снижено вертикальное дрожание изображения.
Сравнение (исходник слева)

MediaInfo

x264 log

avs [info]: 694x572p 12:11 @ 25/1 fps (cfr)
x264 [info]: using SAR=12/11
x264 [info]: using cpu capabilities: MMX2 SSE2Fast SSSE3 SSE4.2
x264 [info]: profile High, level 4.1
x264 [info]: frame I:1488 Avg QP:18.11 size: 51604
x264 [info]: frame P:48198 Avg QP:20.62 size: 22494
x264 [info]: frame B:145877 Avg QP:22.09 size: 6789
x264 [info]: consecutive B-frames: 3.4% 3.6% 10.4% 29.9% 19.0% 30.2% 2.7% 0.8% 0.1%
x264 [info]: mb I I16..4: 3.8% 83.4% 12.7%
x264 [info]: mb P I16..4: 0.3% 12.3% 1.3% P16..4: 42.3% 28.2% 14.8% 0.4% 0.1% skip: 0.3%
x264 [info]: mb B I16..4: 0.0% 0.8% 0.1% B16..8: 43.8% 12.6% 2.9% direct: 8.3% skip:31.3% L0:38.8% L1:40.4% BI:20.8%
x264 [info]: 8x8 transform intra:86.7% inter:68.5%
x264 [info]: direct mvs spatial:99.2% temporal:0.8%
x264 [info]: coded y,uvDC,uvAC intra: 95.9% 85.8% 55.8% inter: 38.6% 32.7% 9.9%
x264 [info]: i16 v,h,dc,p: 15% 11% 18% 56%
x264 [info]: i8 v,h,dc,ddl,ddr,vr,hd,vl,hu: 14% 12% 5% 8% 12% 14% 11% 12% 11%
x264 [info]: i4 v,h,dc,ddl,ddr,vr,hd,vl,hu: 14% 12% 2% 8% 13% 15% 13% 12% 11%
x264 [info]: i8c dc,h,v,p: 35% 23% 25% 17%
x264 [info]: Weighted P-Frames: Y:21.1% UV:8.0%
x264 [info]: ref P L0: 43.2% 14.9% 14.1% 5.7% 4.7% 3.4% 3.1% 1.7% 1.7% 1.3% 1.3% 1.1% 1.1% 0.9% 1.0% 0.7%
x264 [info]: ref B L0: 84.5% 6.4% 2.3% 1.5% 1.0% 1.0% 0.7% 0.5% 0.4% 0.4% 0.3% 0.3% 0.3% 0.2% 0.1%
x264 [info]: ref B L1: 98.4% 1.6%
x264 [info]: kb/s:2200.11
-General
Unique ID : 220150807828700516182235606805391159068 (0xA59F80D8C83C5F9EAC4257803D992F1C)
Complete name : Проданный смех.1981.mkv
Format : Matroska
Format version : Version 2
File size : 2.18 GiB
Duration : 2 h 10 min
Overall bit rate : 2 394 kb/s
Encoded date : UTC 2018-01-08 12:16:57
Writing application : mkvmerge v7.8.0 ('River Man') 32bit built on Mar 27 2015 16:18:02
Writing library : libebml v1.3.1 + libmatroska v1.4.2
Video
ID : 1
Format : AVC
Format/Info : Advanced Video Codec
Format profile : High@L4.1
Format settings, CABAC : Yes
Format settings, ReFrames : 16 frames
Codec ID : V_MPEG4/ISO/AVC
Duration : 2 h 10 min
Bit rate : 2 200 kb/s
Width : 694 pixels
Height : 572 pixels
Display aspect ratio : 4:3
Original display aspect rat : 4:3
Frame rate mode : Constant
Frame rate : 25.000 FPS
Color space : YUV
Chroma subsampling : 4:2:0
Bit depth : 8 bits
Scan type : Progressive
Bits/(Pixel*Frame) : 0.222
Stream size : 1.96 GiB (90%)
Title : Проданный смех.1981
Writing library : x264 core 152 r2851kMod ba24899
Encoding settings : cabac=1 / ref=16 / deblock=1:-2:-2 / analyse=0x3:0x133 / me=umh / subme=10 / psy=1 / fade_compensate=0.00 / psy_rd=1.00:0.15 / mixed_ref=1 / me_range=32 / chroma_me=1 / trellis=2 / 8x8dct=1 / cqm=0 / deadzone=21,11 / fast_pskip=0 / chroma_qp_offset=-3 / threads=12 / lookahead_threads=2 / sliced_threads=0 / nr=0 / decimate=0 / interlaced=0 / bluray_compat=0 / constrained_intra=0 / bframes=8 / b_pyramid=2 / b_adapt=2 / b_bias=0 / direct=3 / weightb=1 / open_gop=0 / weightp=2 / keyint=250 / keyint_min=25 / scenecut=40 / intra_refresh=0 / rc_lookahead=60 / rc=2pass / mbtree=0 / bitrate=2200 / ratetol=1.0 / qcomp=0.60 / qpmin=0 / qpmax=69 / qpstep=4 / cplxblur=20.0 / qblur=0.5 / vbv_maxrate=62500 / vbv_bufsize=78125 / nal_hrd=none / filler=0 / ip_ratio=1.30 / pb_ratio=1.30 / aq=1:0.80
Language : Russian
Default : Yes
Forced : No
Color range : Limited
Color primaries : BT.601 PAL
Transfer characteristics : BT.470 System B, BT.470 System G
Matrix coefficients : BT.601
Audio
ID : 2
Format : AC-3
Format/Info : Audio Coding 3
Mode extension : CM (complete main)
Format settings, Endianness : Big
Codec ID : A_AC3
Duration : 2 h 10 min
Bit rate mode : Constant
Bit rate : 192 kb/s
Channel(s) : 2 channels
Channel positions : Front: L R
Sampling rate : 48.0 kHz
Frame rate : 31.250 FPS (1536 spf)
Compression mode : Lossy
Stream size : 179 MiB (8%)
Title : AC-3; 16 bits 48 Khz; 2.0ch 192 Kbps; CBR
Language : Russian
Default : Yes
Forced : No
Menu
00:00:00.000 : ru:1 серия
01:00:16.160 : ru:2 серия
[cybertorrent.net].t102.torrent 
Торрент: Зарегистрирован [ 2019-03-18 10:04 ] · 0EA8CFBD2FC0E9450C72E39A3D9DDB28FB6E329F

Скачать .torrent

Скачать

11 KB

Статус: проверено
Скачан: 0 раз
Размер: 2,18 GB
terms.php
Показать сообщения:    

Текущее время: 07-Дек 11:04

Часовой пояс: UTC ± 0



Вы не можете начинать темы
Вы не можете отвечать на сообщения
Вы не можете редактировать свои сообщения
Вы не можете удалять свои сообщения
Вы не можете голосовать в опросах
Вы не можете прикреплять файлы к сообщениям
Вы можете скачивать файлы