Статистика раздачи
Размер:  386 MB   |    Зарегистрирован:  1 месяц 26 дней   |    Скачан:  0 раз

Полного источника не было: Никогда

 
     
 
 

Floyd ®

Пол:
Мужской
Стаж:
8 месяцев 15 дней
Сообщений:
1547

Пропавший оркестр Год выпуска: 2011
Страна: Россия
Жанр: мультфильм, короткометражка
Продолжительность: 00:13:00
Перевод: не требуется
субтитры: отсутствуют-Режиссёр: Алексей Бовкун, Екатерина Шабанова-Описание: Проснувшись однажды утром, маленький человечек по имени Мортон обнаруживает, что остался один. Он отправляется в путешествие по волшебному миру, чтобы найти своих исчезнувших друзей.-Качество: WEBRip 1080p
Формат: MP4
Видео кодек: AVC
Аудио кодек: AAC
Видео: 1920x1080, 25 fps, ~3961 kbps, 0.076 bit/pixel
Аудио: 48kHz, AAC, 2ch, 192 kbps

MediaInfo

Общее
Полное имя : D:\Сов.мульт\Пропавший оркестр.2011.WEBRip 1080p.mp4
Формат : MPEG-4
Профиль формата : Base Media
Идентификатор кодека : isom (isom/avc1)
Размер файла : 386 Мбайт
Продолжительность : 13 м. 0 с.
Режим общего битрейта : Переменный
Общий поток : 4155 Кбит/сек
Дата кодирования : UTC 2019-09-28 18:07:34
Дата пометки : UTC 2019-09-28 18:07:34
Программа кодирования : Yamb 2.1.0.0 []http://yamb.unite-video.com]
Видео
Идентификатор : 1
Формат : AVC
Формат/Информация : Advanced Video Codec
Профиль формата : High@L4
Настройки формата : CABAC / 3 Ref Frames
Параметр CABAC формата : Да
Параметр RefFrames формата : 3 кадра
Параметр GOP формата : M=1, N=75
Идентификатор кодека : avc1
Идентификатор кодека/Информация : Advanced Video Coding
Продолжительность : 12 м. 59 с.
Битрейт : 3961 Кбит/сек
Максимальный битрейт : 15,9 Мбит/сек
Ширина : 1920 пикселей
Высота : 1080 пикселей
Соотношение сторон : 16:9
Режим частоты кадров : Постоянный
Частота кадров : 25,000 кадров/сек
Цветовое пространство : YUV
Субдискретизация насыщенности : 4:2:0
Битовая глубина : 8 бит
Тип развёртки : Прогрессивная
Бит/(Пиксели*Кадры) : 0.076
Размер потока : 368 Мбайт (95%)
Дата кодирования : UTC 2019-09-28 18:07:34
Дата пометки : UTC 2019-09-28 18:07:37
Аудио
Идентификатор : 2
Формат : AAC
Формат/Информация : Advanced Audio Codec
Профиль формата : LC
Идентификатор кодека : mp4a-40-2
Продолжительность : 13 м. 0 с.
Вид битрейта : Переменный
Битрейт : 192 Кбит/сек
Максимальный битрейт : 197 Кбит/сек
Каналы : 2 канала
Расположение каналов : Front: L R
Частота : 48,0 КГц
Частота кадров : 46,875 кадров/сек (1024 SPF)
Метод сжатия : С потерями
Размер потока : 17,9 Мбайт (5%)
Дата кодирования : UTC 2019-09-28 18:07:37
Дата пометки : UTC 2019-09-28 18:07:37
[cybertorrent.net].t8116.torrent 
Торрент: Зарегистрирован [ 2019-10-17 16:26 ] · 1272CB8DA9638236C6B2F05CC33DE93A16D21344

Скачать .torrent

Скачать

16 KB

Статус: проверено
Скачан: 0 раз
Размер: 386 MB
terms.php
Профиль [ЛС]
Показать сообщения:    

Текущее время: 12-Дек 20:12

Часовой пояс: UTC ± 0



Вы не можете начинать темы
Вы не можете отвечать на сообщения
Вы не можете редактировать свои сообщения
Вы не можете удалять свои сообщения
Вы не можете голосовать в опросах
Вы не можете прикреплять файлы к сообщениям
Вы можете скачивать файлы