Статистика раздачи
Размер:  2,06 GB   |    Зарегистрирован:  7 месяцев 5 дней   |    Скачан:  0 раз

Полного источника не было: Никогда

 
     
 
 

Гость ®

Пол:
Не указан

Безжалостный / Lo spietato
Страна: Италия, Франция
Студия: BiBi Film, Indie Prod, Rai Cinema
Жанр: Драма, криминал
Год выпуска: 2019
Продолжительность: 01:51:22
Перевод: Любительский (многоголосый закадровый) | Mallorn Studio
Субтитры: английские, русские, немецкие (Netflex)
Оригинальная аудиодорожка: итальянский
Режиссер: Ренато Де Мария / Renato De Maria
В ролях:
Риккардо Скамарчо, Сара Серайокко, Валентайн Пайен, Алессио Пратико, Мари-Анж Каста, Алессандро Тедески, Фулвио Милани, Фортунато Вердучи, Маттео Леони, Фабио Пелликори
Описание:
Санто Руссо вырос в криминальном районе Милана и с раннего детства знал преступный мир. В итоге он стал частью мафиозной группировки под названием Ндрангета, которая в восьмидесятых годах прошлого столетия была самой могущественной во всей Италии. Так начался его криминальный путь. Спустя годы Санто превратился в самого жестокого и опасного преступника, который имел огромное влияние в криминальном мире. Его боялись практически все и ему не были знакомы такие чувства как жалость, милосердие, сострадание. Санто всегда получал то, что хотел и ничто не могло остановить его. Как долго он будет идти по пути зла, и сможет ли что-нибудь изменить его?-| IMDb | КиноПоиск | Скачать сэмпл |-Качество видео: WEB-DLRip (Исходник: Lo.Spietato.2019.NF.WEB-DL.1080p.mkv)
Формат видео: AVI
Видео: 720x304 (2.35:1), 25 fps, XviD build 67 ~1984 kbps avg, 0.363 bit/pixel
Аудио 1: 48 kHz, AC3 Dolby Digital, 2/0 (L,R) ch, ~192 kbps | Любительский многоголосый закадровый (Mallorn Studio)
Аудио 2: 48 kHz, AC3 Dolby Digital, 3/2 (L,C,R,l,r) + LFE ch, ~448 kbps | Итальянский
Формат субтитров: softsub (SRT)

MediaInfo

Bezgalostnyi.2019.WEB-DLRip\Bezgalostnyi.2019.WEB-DLRip.avi
Формат : AVI
Формат/Информация : Audio Video Interleave
Профиль формата : OpenDML
Размер файла : 2,06 Гбайт
Продолжительность : 1 ч. 51 м.
Общий поток : 2643 Кбит/сек
Название фильма : Безжалостный / Lo spietato (2019) WEB-DLRip
Режиссёр : Ренато Де Мария / Renato De Maria
Жанр : Драма, криминал
Программа кодирования : VirtualDubMod 1.5.10.2 (build 2542/release)
Формат оригинала/Имя : Художественный фильм
Авторское право : Италия, Франция, BiBi Film, Indie Prod, Rai Cinema
Примечание : Rip by vitolinform
Видео
Идентификатор : 0
Формат : MPEG-4 Visual
Профиль формата : Advanced Simple@L5
Настройки формата : BVOP2
Параметр BVOP формата : 2
Параметр QPel формата : Нет
Параметр GMC формата : Без точки перехода
Параметр матрицы формата : Default (MPEG)
Идентификатор кодека : XVID
Идентификатор кодека/Подсказка : XviD
Продолжительность : 1 ч. 51 м.
Битрейт : 1984 Кбит/сек
Ширина : 720 пикселей
Высота : 304 пикселя
Соотношение сторон : 2,35:1
Частота кадров : 25,000 кадров/сек
Цветовое пространство : YUV
Субдискретизация насыщенности : 4:2:0
Битовая глубина : 8 бит
Тип развёртки : Прогрессивная
Метод сжатия : С потерями
Бит/(Пиксели*Кадры) : 0.363
Размер потока : 1,54 Гбайт (75%)
Библиотека кодирования : XviD 67
Аудио #1
Идентификатор : 1
Формат : AC-3
Формат/Информация : Audio Coding 3
Идентификатор кодека : 2000
Продолжительность : 1 ч. 51 м.
Вид битрейта : Постоянный
Битрейт : 192 Кбит/сек
Каналы : 2 канала
Расположение каналов : Front: L R
Частота : 48,0 КГц
Частота кадров : 31,250 кадров/сек (1536 SPF)
Битовая глубина : 16 бит
Метод сжатия : С потерями
Размер потока : 153 Мбайт (7%)
Выравнивание : Разделение по промежуткам
Продолжительность промежутка : 40 мс. (1,00 видеокадр)
Время предзагрузки промежутка : 500 мс.
Заголовок : Russian (MVO Mallorn Studio)
ServiceKind/String : Complete Main
Аудио #2
Идентификатор : 2
Формат : AC-3
Формат/Информация : Audio Coding 3
Идентификатор кодека : 2000
Продолжительность : 1 ч. 51 м.
Вид битрейта : Постоянный
Битрейт : 448 Кбит/сек
Каналы : 6 каналов
Расположение каналов : Front: L C R, Side: L R, LFE
Частота : 48,0 КГц
Частота кадров : 31,250 кадров/сек (1536 SPF)
Битовая глубина : 16 бит
Метод сжатия : С потерями
Размер потока : 357 Мбайт (17%)
Выравнивание : Разделение по промежуткам
Продолжительность промежутка : 40 мс. (1,00 видеокадр)
Время предзагрузки промежутка : 500 мс.
Заголовок : Italian
ServiceKind/String : Complete Main

Скриншот c названием фильма

Скриншоты

[cybertorrent.net].t2609.torrent 
Торрент: Зарегистрирован [ 2019-05-07 17:26 ] · D6A87125F7A9E63BC0FAF6F996D9612E51ADF571

Скачать .torrent

Скачать

11 KB

Статус: проверено
Скачан: 0 раз
Размер: 2,06 GB
terms.php
Показать сообщения:    

Текущее время: 12-Дек 20:14

Часовой пояс: UTC ± 0



Вы не можете начинать темы
Вы не можете отвечать на сообщения
Вы не можете редактировать свои сообщения
Вы не можете удалять свои сообщения
Вы не можете голосовать в опросах
Вы не можете прикреплять файлы к сообщениям
Вы можете скачивать файлы