Статистика раздачи
Нет
 
     
 
 

MAGNAT ®

Пол:
Мужской
Стаж:
1 год 10 месяцев
Сообщений:
9254

Бладшот |Bloodshot«Быть супергероем у него в крови»Локализованный видеоряд
Страна: США, Китай
Студия: Columbia Pictures, Bona Film Group, Annabell Pictures
Жанр: фантастика, боевик, драма
Год выпуска: 2020
Продолжительность: 01:44:36-Перевод: Профессиональный (дублированный) Пифагор
Субтитры: нет
Оригинальная аудиодорожка: нет-Режиссер: Дэйв Уилсон / Dave Wilson
В ролях: Вин Дизель, Гай Пирс, Ламорн Моррис, Эйса Гонсалес, Сэм Хьюэн, Сиддхартх Дхананджай, Талула Райли, Тоби Кеббелл, Йоуханнес Хёйкюр Йоуханнессон, Алекс Эрнандез-Описание: При помощи передовых технологий, богатая корпорация RST способна буквально возвращать людей с того света. Но, как и любая корпорация, делают они это не из лучших побуждений. Отобранные у смерти становятся солдатами на службе RST - воинами, которым нет равных. Нанороботы не только возвращают жизнь, но и превращают простое человеческое тело в отлажено работающий механизм с характеристиками, сильно превосходящими любого человека. Так происходит и с погибшим солдатом Гаррисоном, которого таким путем превращают в Бладшота – превосходное орудие для убийства. Но солдат не хочет мириться с судьбой машины смерти и пытается докопаться до правды.
Тип релиза: HDTV 1080i
Контейнер: MKV
Видео: MPEG-4 AVC / PAL 16:9 / 1920x1080 (2,40:1) / 6010 kbps / 25,000 fps / 0.058 bit/pixel / High@L4
Аудио: Russian | Dolby Digital Audio / 5.1 Ch / 48 kHz / 448 kbps / 16 bit | DUB | Пифагор
Навигация по главам: есть

MediaInfo

Код:Общее
Уникальный идентификатор : 150278220314555476849538074765973920157 (0x710E884E98F4D8BB9C8CBD49C79E199D)
Полное имя : N:\HDTV\Bloodshot.2020.1080i.HDTV.MPEG4.DUB.DD.5.1.mkv
Формат : Matroska
Версия формата : Version 4
Размер файла : 4,72 Гбайт
Продолжительность : 1 ч. 44 м.
Общий поток : 6 461 Кбит/сек
Дата кодирования : UTC 2020-12-26 07:47:26
Программа кодирования : mkvmerge v51.0.0 ('I Wish') 64-bit
Библиотека кодирования : libebml v1.4.0 + libmatroska v1.6.2
Видео
Идентификатор : 1
Формат : AVC
Формат/Информация : Advanced Video Codec
Профиль формата : High@L4
Настройки формата : CABAC / 4 Ref Frames
Параметр CABAC формата : Да
Параметр RefFrames формата : 4 кадра
Параметр GOP формата : M=4, N=28
Идентификатор кодека : V_MPEG4/ISO/AVC
Продолжительность : 1 ч. 44 м.
Битрейт : 6 010 Кбит/сек
Ширина : 1 920 пикселей
Высота : 1 080 пикселей
Соотношение сторон : 16:9
Режим частоты кадров : Переменный
Частота кадров : 50,000 кадров/сек
Частота кадров в оригинале : 25,000 кадров/сек
Стандарт вещания : Component
Цветовое пространство : YUV
Субдискретизация насыщенности : 4:2:0
Битовая глубина : 8 бит
Тип развёртки : Чересстрочная
Метод сохранения типа развёртки : Раздельные поля
Порядок развёртки : Верхнее поле первое
Бит/(Пиксели*Кадры) : 0.058
Размер потока : 4,39 Гбайт (93%)
Заголовок : HDTV
Язык : English
Default : Да
Forced : Нет
Цветовой диапазон : Limited
Основные цвета : BT.709
Характеристики трансфера : BT.709
Коэффициенты матрицы : BT.709
Аудио
Идентификатор : 2
Формат : AC-3
Формат/Информация : Audio Coding 3
Коммерческое название : Dolby Digital
Идентификатор кодека : A_AC3
Продолжительность : 1 ч. 44 м.
Вид битрейта : Постоянный
Битрейт : 448 Кбит/сек
Каналы : 6 каналов
Channel layout : L R C LFE Ls Rs
Частота : 48,0 КГц
Частота кадров : 31,250 кадров/сек (1536 SPF)
Метод сжатия : С потерями
Размер потока : 335 Мбайт (7%)
Заголовок : DUB
Язык : Russian
Service kind : Complete Main
Default : Да
Forced : Нет
Меню
00:00:00.000 : en:Chapter 01
00:06:11.330 : en:Chapter 02
00:10:25.760 : en:Chapter 03
00:18:23.000 : en:Chapter 04
00:24:52.880 : en:Chapter 05
00:30:44.800 : en:Chapter 06
00:35:01.000 : en:Chapter 07
00:41:38.400 : en:Chapter 08
00:50:23.600 : en:Chapter 09
01:01:11.920 : en:Chapter 10
01:08:32.000 : en:Chapter 11
01:15:13.700 : en:Chapter 12
01:23:58.820 : en:Chapter 13
01:30:11.400 : en:Chapter 14
01:38:57.330 : en:Chapter 15
Профиль [ЛС]
Показать сообщения:    

Текущее время: 25-Фев 15:49

Часовой пояс: UTC ± 0



Вы не можете начинать темы
Вы не можете отвечать на сообщения
Вы не можете редактировать свои сообщения
Вы не можете удалять свои сообщения
Вы не можете голосовать в опросах
Вы не можете прикреплять файлы к сообщениям
Вы не можете скачивать файлы