Статистика раздачи
Размер:  737 MB   |    Зарегистрирован:  2 месяца 20 дней   |    Скачан:  0 раз
DL-List: Нет

Полного источника не было: Никогда

 
     
 
 

MAGNAT ®

Пол:
Мужской
Стаж:
1 год 3 месяца
Сообщений:
8778

Индустриальный саундтрек к городскому упадку / Industrial Soundtrack for the Urban Decay
Дата/Год выпуска: 2015
Страна: France
Жанр: Documentary
Продолжительность: 00:52:00
Перевод: Субтитры, автор раздачи.
Русские субтитры: есть
Английские субтитры: есть
Формат субтитров: softsub (SRT)
Оригинальная аудиодорожка: английский
Режиссер: Amélie Ravalec, Travis Collins
Описание: Фильм о истоках и становлении раннего индастриала. По сути представляет собой нарезку из интервью первопроходцев стиля - Throbbing Gristle, Cabaret Voltaire, SPK, NON, Z'EV и т.д.
Кинопоиск
качество: DVDRip
формат: MKV
Видео: AVC, 720x576, 16:9, 1788 Kbps, 25 fps
Аудио: AC-3, 192 Kbps, 48,0 kHz, 2 ch

MediaInfo

General
Unique ID : 328541434055021956743361957464894930505 (0xF72AC75123DB358FE2DC05124498FE49)
Complete name : Industrial Soundtrack for the Urban Decay.mkv
Format : Matroska
Format version : Version 4
File size : 737 MiB
Duration : 52 min 0 s
Overall bit rate : 1 982 kb/s
Encoded date : UTC 2019-09-12 15:48:07
Writing application : mkvmerge v31.0.0 ('Dolores In A Shoestand') 64-bit
Writing library : libebml v1.3.6 + libmatroska v1.4.9
Video
ID : 1
Format : AVC
Format/Info : Advanced Video Codec
Format profile : High@L4.1
Format settings : CABAC / 9 Ref Frames
Format settings, CABAC : Yes
Format settings, ReFrames : 9 frames
Codec ID : V_MPEG4/ISO/AVC
Duration : 52 min 0 s
Bit rate : 1 788 kb/s
Width : 720 pixels
Height : 576 pixels
Display aspect ratio : 16:9
Frame rate mode : Constant
Frame rate : 25.000 FPS
Standard : PAL
Color space : YUV
Chroma subsampling : 4:2:0
Bit depth : 8 bits
Scan type : Progressive
Bits/(Pixel*Frame) : 0.172
Stream size : 665 MiB (90%)
Writing library : x264 core 142 r2479 dd79a61
Encoding settings : cabac=1 / ref=9 / deblock=1:-2:-2 / analyse=0x3:0x133 / me=umh / subme=9 / psy=1 / psy_rd=1.00:0.00 / mixed_ref=1 / me_range=24 / chroma_me=1 / trellis=2 / 8x8dct=1 / cqm=0 / deadzone=21,11 / fast_pskip=0 / chroma_qp_offset=-2 / threads=12 / lookahead_threads=1 / sliced_threads=0 / nr=0 / decimate=1 / interlaced=0 / bluray_compat=0 / constrained_intra=0 / bframes=6 / b_pyramid=2 / b_adapt=2 / b_bias=0 / direct=3 / weightb=1 / open_gop=0 / weightp=2 / keyint=250 / keyint_min=25 / scenecut=40 / intra_refresh=0 / rc_lookahead=50 / rc=crf / mbtree=1 / crf=18.5 / qcomp=0.60 / qpmin=0 / qpmax=69 / qpstep=4 / vbv_maxrate=62500 / vbv_bufsize=78125 / crf_max=0.0 / nal_hrd=none / filler=0 / ip_ratio=1.40 / aq=1:1.20
Default : Yes
Forced : No
Color range : Limited
Color primaries : BT.601 PAL
Transfer characteristics : BT.709
Matrix coefficients : BT.601
Audio
ID : 2
Format : AC-3
Format/Info : Audio Coding 3
Commercial name : Dolby Digital
Codec ID : A_AC3
Duration : 52 min 0 s
Bit rate mode : Constant
Bit rate : 192 kb/s
Channel(s) : 2 channels
Channel layout : L R
Sampling rate : 48.0 kHz
Frame rate : 31.250 FPS (1536 SPF)
Bit depth : 16 bits
Compression mode : Lossy
Stream size : 71.4 MiB (10%)
Title : Stereo
Language : English
Service kind : Complete Main
Default : Yes
Forced : No
Text
ID : 3
Format : UTF-8
Codec ID : S_TEXT/UTF8
Codec ID/Info : UTF-8 Plain Text
Duration : 46 min 30 s
Bit rate : 181 b/s
Count of elements : 629
Stream size : 61.7 KiB (0%)
Title : isftud
Language : Russian
Default : Yes
Forced : No

Скриншоты



О раздаче

Исходник - http://rustorka.me/viewtopic.php?t=5426307
Перекодировка не производилась.
Удалены все иностранные VobSub-субтитры.
Добавлены русские и английские srt-субтитры.
[cybertorrent.net].t16559.torrent 
Торрент: Зарегистрирован [ 2020-04-16 12:28 ] · 9326E090298AC93405EF9B1A455F737753BE9846

Скачать .torrent

Скачать

29 KB

Статус: проверено
Скачан: 0 раз
Размер: 737 MB  ·  Тип торрента
terms.php
Профиль [ЛС]
Показать сообщения:    

Текущее время: 06-Июл 17:30

Часовой пояс: UTC ± 0



Вы не можете начинать темы
Вы не можете отвечать на сообщения
Вы не можете редактировать свои сообщения
Вы не можете удалять свои сообщения
Вы не можете голосовать в опросах
Вы не можете прикреплять файлы к сообщениям
Вы можете скачивать файлы