Статистика раздачи
Размер:  2,18 GB   |    Зарегистрирован:  6 месяцев 27 дней   |    Скачан:  0 раз

Полного источника не было: Никогда

   
 

karlll ®

Пол:
Не указан
Стаж:
7 месяцев 2 дня
Сообщений:
171

Смолфут / Smallfoot
Страна: США
Жанр: мультфильм, мюзикл, фэнтези, комедия, приключения
Год выпуска: 2018
Продолжительность: 01:36:17-Перевод: Профессиональный (дублированный) | iTunes
Субтитры: русские, английские
Оригинальная аудиодорожка: английский-Режиссер: Кэри Киркпатрик / Karey Kirkpatrick, Джейсон Рейсиг / Jason Reisig-В ролях: Ченнинг Татум, Джеймс Корден, Зендая Колеман, Коммон, Леброн Джеймс, Дэнни ДеВито, Джина Родригез, Яра Шахиди, Эли Генри, Джимми Татро-Описание: Молодой находчивый йети сталкивается с тем, кого, по его глубокому убеждению, не существует — человеком. Новости о «смолфуте» приносят ему славу и шанс завоевать девушку его мечты. А ещё — вызывают переполох среди простых йети, которые теперь гадают, кто же ещё обитает в большом мире за пределами их маленькой заснеженной деревушки.- -Качество видео: BDRip | SMALFOOT_2018_BLUEBIRD
Формат видео: AVI
Видео: 720x304 (2.37:1), 23.976 fps, XviD build 73 ~2209 kbps avg, 0.42 bit/pixel
Аудио 1: 48 kHz, AC3 Dolby Digital, 3/2 (L,C,R,l,r) + LFE ch, ~384 kbps | iTunes
Аудио 2: 48 kHz, AC3 Dolby Digital, 2/0 (L,R) ch, ~192 kbps | Ukr
Аудио 3: 48 kHz, AC3 Dolby Digital, 3/2 (L,C,R,l,r) + LFE ch, ~448 kbps | Eng-[box]Сэмпл[/box]-

MediaInfo

Код:Формат : AVI
Формат/Информация : Audio Video Interleave
Профиль формата : OpenDML
Размер файла : 2,18 Гбайт
Продолжительность : 1 ч. 36 м.
Общий поток : 3241 Кбит/сек
Программа кодирования : VirtualDubMod 1.5.10.3 | www.virtualdub-fr.org || (build 2550/release)
Библиотека кодирования : VirtualDubMod build 2550/release
Видео
Идентификатор : 0
Формат : MPEG-4 Visual
Профиль формата : Advanced Simple@L5
Настройки формата : BVOP1 / Custom Matrix
Параметр BVOP формата : 1
Параметр QPel формата : Нет
Параметр GMC формата : Без точки перехода
Параметр матрицы формата : Выборочная
Идентификатор кодека : XVID
Идентификатор кодека/Подсказка : XviD
Продолжительность : 1 ч. 36 м.
Битрейт : 2193 Кбит/сек
Ширина : 720 пикселей
Высота : 304 пикселя
Соотношение сторон : 2,35:1
Частота кадров : 23,976 (24000/1001) кадра/сек
Цветовое пространство : YUV
Субдискретизация насыщенности : 4:2:0
Битовая глубина : 8 бит
Тип развёртки : Прогрессивная
Метод сжатия : С потерями
Бит/(Пиксели*Кадры) : 0.418
Размер потока : 1,47 Гбайт (68%)
Библиотека кодирования : XviD 73
Аудио #1
Идентификатор : 1
Формат : AC-3
Формат/Информация : Audio Coding 3
Коммерческое название : Dolby Digital
Идентификатор кодека : 2000
Продолжительность : 1 ч. 36 м.
Вид битрейта : Постоянный
Битрейт : 384 Кбит/сек
Каналы : 6 каналов
Channel layout : L R C LFE Ls Rs
Частота : 48,0 КГц
Частота кадров : 31,250 кадров/сек (1536 SPF)
Битовая глубина : 16 бит
Метод сжатия : С потерями
Размер потока : 264 Мбайт (12%)
Выравнивание : Разделение по промежуткам
Продолжительность промежутка : 42 мс. (1,00 видеокадр)
Время предзагрузки промежутка : 500 мс.
Заголовок : Russian
ServiceKind/String : Complete Main
Аудио #2
Идентификатор : 2
Формат : AC-3
Формат/Информация : Audio Coding 3
Коммерческое название : Dolby Digital
Идентификатор кодека : 2000
Продолжительность : 1 ч. 36 м.
Вид битрейта : Постоянный
Битрейт : 192 Кбит/сек
Каналы : 2 канала
Channel layout : L R
Частота : 48,0 КГц
Частота кадров : 31,250 кадров/сек (1536 SPF)
Битовая глубина : 16 бит
Метод сжатия : С потерями
Размер потока : 132 Мбайт (6%)
Выравнивание : Разделение по промежуткам
Продолжительность промежутка : 42 мс. (1,00 видеокадр)
Время предзагрузки промежутка : 500 мс.
Заголовок : Ukrainian
ServiceKind/String : Complete Main
Аудио #3
Идентификатор : 3
Формат : AC-3
Формат/Информация : Audio Coding 3
Коммерческое название : Dolby Digital
Идентификатор кодека : 2000
Продолжительность : 1 ч. 36 м.
Вид битрейта : Постоянный
Битрейт : 448 Кбит/сек
Каналы : 6 каналов
Channel layout : L R C LFE Ls Rs
Частота : 48,0 КГц
Частота кадров : 31,250 кадров/сек (1536 SPF)
Битовая глубина : 16 бит
Метод сжатия : С потерями
Размер потока : 309 Мбайт (14%)
Выравнивание : Разделение по промежуткам
Продолжительность промежутка : 42 мс. (1,00 видеокадр)
Время предзагрузки промежутка : 500 мс.
Заголовок : English
ServiceKind/String : Complete Main

Скриншоты


[cybertorrent.net].t177.torrent 
Торрент: Зарегистрирован [ 2019-03-18 10:04 ] · B6E4E21A2D8E34576DC34628B6E775F34B0D0C7D

Скачать .torrent

Скачать

12 KB

Статус: проверено
Скачан: 0 раз
Размер: 2,18 GB
terms.php
Профиль ЛС
Показать сообщения:    

Текущее время: 15-Окт 08:59

Часовой пояс: UTC ± 0



Вы не можете начинать темы
Вы не можете отвечать на сообщения
Вы не можете редактировать свои сообщения
Вы не можете удалять свои сообщения
Вы не можете голосовать в опросах
Вы не можете прикреплять файлы к сообщениям
Вы можете скачивать файлы