Статистика раздачи
Размер:  15,3 GB   |    Зарегистрирован:  3 месяца 6 дней   |    Скачан:  0 раз
DL-List: Нет

Полного источника не было: Никогда

 
     
 
 

MAGNAT ®

Пол:
Мужской
Стаж:
1 год 3 месяца
Сообщений:
8778

Люди / Humans
Год выпуска: 2015-2018
Страна: Великобритания, Швеция, США
Жанр: фантастика, драма
Продолжительность: 0:48:00
Перевод: Профессиональный (многоголосый закадровый) Amedia
Режиссёр: Льюис Арнольд / Lewis Arnold
В ролях: Джемма Чан, Том Гудман-Хилл, Кэтрин Паркинсон, Люси Карлесс, Колин Морган, Эмили Беррингтон, Нил Мэскелл, Рут Брэдли, Иванно Джеремайя, Дэниэл Уэбб и другие.
Описание: Действие сериала развернется в параллельном мире, где чрезвычайную популярность приобрели новые гаджеты — высокотехнологичные роботы-слуги, которые внешне пугающе похожи на людей. Одного такого «помощника по хозяйству» приобретает живущая в пригороде семья. Вскоре они осознают, что совместная с машиной жизнь повлечет за собой жуткие последствия.
Качество: HDRip
Формат: AVI
Видео: MPEG4, DivX 5, 720x400 (16:9), 25.000 fps, 1 604 Kbps (0.223 bit/pixel) - 1,2сезон
............MPEG4, DivX 5, 720x400 (16:9), 23.976 fps, 1 489 Kbps (0.216 bit/pixel) - 3 сезон
Аудио: AC-3, 48.0 KHz, 2 ch, 192 Kbps, CBR - русский
Аудио 2: AC-3, 48.0 KHz, 2 ch, 192 Kbps, CBR - английский
Субтитры: нет
Реклама:
нет

MediaInfo

Общее
Полное имя : I:\Humans.S01E01.HDRip.Rus.Eng.avi
Формат : AVI
Формат/Информация : Audio Video Interleave
Размер файла : 653 Мбайт
Продолжительность : 45 м. 33 с.
Общий поток : 2003 Кбит/сек
Название фильма : Люди. Сезон 1 / Humans. Season 1 (2015)
Программа кодирования : VirtualDubMod 1.5.10.2 (build 2540/release)
Библиотека кодирования : VirtualDubMod build 2540/release
Авторское право : miha2154
Видео
Идентификатор : 0
Формат : MPEG-4 Visual
Профиль формата : Advanced Simple@L5
Настройки формата : BVOP1 / Custom Matrix
Параметр BVOP формата : 1
Параметр QPel формата : Нет
Параметр GMC формата : Без точки перехода
Параметр матрицы формата : Выборочная
Идентификатор кодека : DX50
Идентификатор кодека/Подсказка : DivX 5
Продолжительность : 45 м. 33 с.
Битрейт : 1604 Кбит/сек
Ширина : 720 пикселей
Высота : 400 пикселей
Соотношение сторон : 16:9
Частота кадров : 25,000 кадров/сек
Цветовое пространство : YUV
Субдискретизация насыщенности : 4:2:0
Битовая глубина : 8 бит
Тип развёртки : Прогрессивная
Метод сжатия : С потерями
Бит/(Пиксели*Кадры) : 0.223
Размер потока : 523 Мбайт (80%)
Библиотека кодирования : XviD 65
Аудио #1
Идентификатор : 1
Формат : AC-3
Формат/Информация : Audio Coding 3
Коммерческое название : Dolby Digital
Идентификатор кодека : 2000
Продолжительность : 45 м. 33 с.
Вид битрейта : Постоянный
Битрейт : 192 Кбит/сек
Каналы : 2 канала
Channel layout : L R
Частота : 48,0 КГц
Частота кадров : 31,250 кадров/сек (1536 SPF)
Битовая глубина : 16 бит
Метод сжатия : С потерями
Размер потока : 62,6 Мбайт (10%)
Выравнивание : Разделение по промежуткам
Продолжительность промежутка : 40 мс. (1,00 видеокадр)
Время предзагрузки промежутка : 500 мс.
Заголовок : Профессиональный (многоголосый, закадровый) Amedia
ServiceKind/String : Complete Main
Аудио #2
Идентификатор : 2
Формат : AC-3
Формат/Информация : Audio Coding 3
Коммерческое название : Dolby Digital
Идентификатор кодека : 2000
Продолжительность : 45 м. 33 с.
Вид битрейта : Постоянный
Битрейт : 192 Кбит/сек
Каналы : 2 канала
Channel layout : L R
Частота : 48,0 КГц
Частота кадров : 31,250 кадров/сек (1536 SPF)
Битовая глубина : 16 бит
Метод сжатия : С потерями
Размер потока : 62,6 Мбайт (10%)
Выравнивание : Разделение по промежуткам
Продолжительность промежутка : 40 мс. (1,00 видеокадр)
Время предзагрузки промежутка : 500 мс.
Заголовок : Английский
ServiceKind/String : Complete Main

Скриншоты


[cybertorrent.net].t13989.torrent 
Торрент: Зарегистрирован [ 2020-03-31 11:32 ] · 3EDF34F11C249E723B2C819CA39B165053C7EB68

Скачать .torrent

Скачать

79 KB

Статус: проверено
Скачан: 0 раз
Размер: 15,3 GB  ·  Тип торрента
terms.php
Профиль [ЛС]
Показать сообщения:    

Текущее время: 06-Июл 17:19

Часовой пояс: UTC ± 0



Вы не можете начинать темы
Вы не можете отвечать на сообщения
Вы не можете редактировать свои сообщения
Вы не можете удалять свои сообщения
Вы не можете голосовать в опросах
Вы не можете прикреплять файлы к сообщениям
Вы можете скачивать файлы