Статистика раздачи
Размер:  6,18 GB   |    Зарегистрирован:  3 месяца 6 дней   |    Скачан:  0 раз
DL-List: Нет

Полного источника не было: Никогда

 
     
 
 

MAGNAT ®

Пол:
Мужской
Стаж:
1 год 3 месяца
Сообщений:
8778

Тёмные начала | His Dark Materials- Год выпуска: 2019
Страна: Великобритания, США
Жанр: Фэнтези, драма, приключения, семейный
Продолжительность: ~ 00:54:00-Перевод: Профессиональный (многоголосый закадровый) | AlexFilm-Режиссёр: Джейми Чайлдс, Отто Батхёрст, Том Хупер-В ролях: Джеймс МакЭвой (Лорд Азриэл), Тайлер Хауит (Билли Коста), Кит Коннор (Пантелеймон), Дафни Кин (Лира Белаква), Йен Пек, Арчи Барнс (Пантелеймон), Дэвид Суше, Рута Гедминтас, Тим Уилдман (Сотрудник секретной полиции Магистериума), Рут Уилсон (Мариса Колтер), Роберт Эммс-Описание: Лира Белаква живёт в мире, где существуют ведьмы и бронированные медведи, а у людей есть деймоны - существа, составляющие неотъемлемую часть их личностей. Опекун девочки, исследователь лорд Азриэл, находит способ передвигаться между параллельными землями, благодаря чему Лира знакомится с мальчиком Уиллом, который живёт в мире, лишённом магии.-Качество: WEB-DLRip
Формат: AVI
Видео: XviD, 720x400 (16:9), 25,000 кадров/сек, 1600 Кбит/сек
Аудио Rus: AC3, 48,0 kHz, 2 ch, 192 Кбит/сек | AlexFilm
Аудио Eng: AC3, 48,0 kHz, 2 ch, 192 Кбит/сек
Субтитры: Русские (Force, Full [FOCS]), английские
Реклама: Отсутствует-

✘ Релиз ✘

Очистка от рекламы: kogesan
-

Список серий

01. Иордан Лиры / Lyra's Jordan
02. Идея Севера / The Idea of the North
03. Шпионы / The Spies
04. Броня / Armour
05. Пропавший мальчик / The Lost Boy
06. Клетки деймонов / The Daemon Cages
07. Смертельная битва / The The Fight to the Death
-

MediaInfo

Общее
Полное имя : E:\His Dark Materials (Season 1) WEB-DLRip\His.Dark.Materials.S01E01.WEB-DLRip.RGzsRutracker.[Wentworth_Miller].avi
Формат : AVI
Формат/Информация : Audio Video Interleave
Размер файла : 781 Мбайт
Продолжительность : 54 м. 38 с.
Общий поток : 1999 Кбит/сек
Название фильма : His Dark Materials 01x01 (Иордан Лиры / Lyra's Jordan) - Release by Wentworth_Miller
Программа кодирования : VirtualDubMod 1.5.10.3 | www.virtualdub-fr.org || (build 2550/release)
Видео
Идентификатор : 0
Формат : MPEG-4 Visual
Профиль формата : Advanced Simple@L5
Настройки формата : BVOP1
Параметр BVOP формата : 1
Параметр QPel формата : Нет
Параметр GMC формата : Без точки перехода
Параметр матрицы формата : Default (MPEG)
Идентификатор кодека : XVID
Идентификатор кодека/Подсказка : XviD
Продолжительность : 54 м. 38 с.
Битрейт : 1600 Кбит/сек
Ширина : 720 пикселей
Высота : 400 пикселей
Соотношение сторон : 16:9
Частота кадров : 25,000 кадров/сек
Цветовое пространство : YUV
Субдискретизация насыщенности : 4:2:0
Битовая глубина : 8 бит
Тип развёртки : Прогрессивная
Метод сжатия : С потерями
Бит/(Пиксели*Кадры) : 0.222
Размер потока : 625 Мбайт (80%)
Библиотека кодирования : XviD 67
Аудио #1
Идентификатор : 1
Формат : AC-3
Формат/Информация : Audio Coding 3
Коммерческое название : Dolby Digital
Идентификатор кодека : 2000
Продолжительность : 54 м. 38 с.
Вид битрейта : Постоянный
Битрейт : 192 Кбит/сек
Каналы : 2 канала
ChannelLayout : L R
Частота : 48,0 КГц
Частота кадров : 31,250 кадров/сек (1536 SPF)
Метод сжатия : С потерями
Размер потока : 75,0 Мбайт (10%)
Выравнивание : Разделение по промежуткам
Продолжительность промежутка : 40 мс. (1,00 видеокадр)
Время предзагрузки промежутка : 500 мс.
ServiceKind/String : Complete Main
Аудио #2
Идентификатор : 2
Формат : AC-3
Формат/Информация : Audio Coding 3
Коммерческое название : Dolby Digital
Идентификатор кодека : 2000
Продолжительность : 54 м. 38 с.
Вид битрейта : Постоянный
Битрейт : 192 Кбит/сек
Каналы : 2 канала
ChannelLayout : L R
Частота : 48,0 КГц
Частота кадров : 31,250 кадров/сек (1536 SPF)
Метод сжатия : С потерями
Размер потока : 75,0 Мбайт (10%)
Выравнивание : Разделение по промежуткам
Продолжительность промежутка : 40 мс. (1,00 видеокадр)
Время предзагрузки промежутка : 500 мс.
ServiceKind/String : Complete Main
-

Скриншоты

-
[cybertorrent.net].t13981.torrent 
Торрент: Зарегистрирован [ 2020-03-31 11:27 ] · 12A7CDA299BBD9079A7A0EEB251BE825D3154C56

Скачать .torrent

Скачать

34 KB

Статус: проверено
Скачан: 0 раз
Размер: 6,18 GB  ·  Тип торрента
terms.php
Профиль [ЛС]
Показать сообщения:    

Текущее время: 06-Июл 17:33

Часовой пояс: UTC ± 0



Вы не можете начинать темы
Вы не можете отвечать на сообщения
Вы не можете редактировать свои сообщения
Вы не можете удалять свои сообщения
Вы не можете голосовать в опросах
Вы не можете прикреплять файлы к сообщениям
Вы можете скачивать файлы