Статистика раздачи
Размер:  5,94 GB   |    Зарегистрирован:  3 месяца 6 дней   |    Скачан:  0 раз
DL-List: Нет

Полного источника не было: Никогда

 
     
 
 

MAGNAT ®

Пол:
Мужской
Стаж:
1 год 3 месяца
Сообщений:
8778

Британия | Britannia- Год выпуска: 2019
Страна: Великобритания, США
Жанр: Фэнтези, боевик, драма
Продолжительность: ~ 00:42:00-Перевод: Профессиональный (многоголосый закадровый) | NewStudio-Режиссёр: Люк Уотсон, Роб Сэвадж, Шери Фоксон-В ролях: Макензи Крук, Дэвид Моррисси, Николай Ли Каас, Элинор Уортингтон-Кокс, Джулиан Райнд-Татт, Лиана Корнелл, Анабель Шолей, Гершвин Эсташ мл., Хьюго Спир, Бэрри Уорд-Описание: События происходят в начале новой эры, когда Британия была населена воинственными кельтскими племенами, которые были не готовы перейти под управление иноземцев, пришедших с далекого юга. Во время римского вторжения Антедия объединяется с захватчиками, чтобы противостоять своему давнему врагу — Керре.-Качество: WEB-DLRip
Формат: AVI
Видео: XviD, 720x400 (16:9), 25,000 кадров/сек, 1600 Кбит/сек
Аудио Rus: AC3, 48,0 kHz, 2 ch, 192 Кбит/сек | NewStudio
Аудио ENg: AC3, 48,0 kHz, 2 ch, 192 Кбит/сек
Субтитры: Русские (Forced)
Реклама: Отсутствует-

MediaInfo

Общее
Полное имя : E:\Britannia (Season 2) WEB-DLRip\Britannia.S02E01.WEB-DLRip.RGzsRutracker.[Wentworth_Miller].avi
Формат : AVI
Формат/Информация : Audio Video Interleave
Размер файла : 601 Мбайт
Продолжительность : 42 м. 4 с.
Общий поток : 1998 Кбит/сек
Программа кодирования : VirtualDubMod 1.5.10.3 | www.virtualdub-fr.org || (build 2550/release)
Библиотека кодирования : VirtualDubMod build 2550/release
Видео
Идентификатор : 0
Формат : MPEG-4 Visual
Профиль формата : Advanced Simple@L5
Настройки формата : BVOP1
Параметр BVOP формата : 1
Параметр QPel формата : Нет
Параметр GMC формата : Без точки перехода
Параметр матрицы формата : Default (MPEG)
Идентификатор кодека : XVID
Идентификатор кодека/Подсказка : XviD
Продолжительность : 42 м. 4 с.
Битрейт : 1600 Кбит/сек
Ширина : 720 пикселей
Высота : 400 пикселей
Соотношение сторон : 16:9
Частота кадров : 25,000 кадров/сек
Цветовое пространство : YUV
Субдискретизация насыщенности : 4:2:0
Битовая глубина : 8 бит
Тип развёртки : Прогрессивная
Метод сжатия : С потерями
Бит/(Пиксели*Кадры) : 0.222
Размер потока : 481 Мбайт (80%)
Библиотека кодирования : XviD 67
Аудио #1
Идентификатор : 1
Формат : AC-3
Формат/Информация : Audio Coding 3
Коммерческое название : Dolby Digital
Идентификатор кодека : 2000
Продолжительность : 42 м. 4 с.
Вид битрейта : Постоянный
Битрейт : 192 Кбит/сек
Каналы : 2 канала
ChannelLayout : L R
Частота : 48,0 КГц
Частота кадров : 31,250 кадров/сек (1536 SPF)
Метод сжатия : С потерями
Размер потока : 57,8 Мбайт (10%)
Выравнивание : Разделение по промежуткам
Продолжительность промежутка : 40 мс. (1,00 видеокадр)
Время предзагрузки промежутка : 500 мс.
ServiceKind/String : Complete Main
Аудио #2
Идентификатор : 2
Формат : AC-3
Формат/Информация : Audio Coding 3
Коммерческое название : Dolby Digital
Идентификатор кодека : 2000
Продолжительность : 42 м. 4 с.
Вид битрейта : Постоянный
Битрейт : 192 Кбит/сек
Каналы : 2 канала
ChannelLayout : L R
Частота : 48,0 КГц
Частота кадров : 31,250 кадров/сек (1536 SPF)
Метод сжатия : С потерями
Размер потока : 57,8 Мбайт (10%)
Выравнивание : Разделение по промежуткам
Продолжительность промежутка : 40 мс. (1,00 видеокадр)
Время предзагрузки промежутка : 500 мс.
ServiceKind/String : Complete Main
-

Скриншоты

-
[cybertorrent.net].t13974.torrent 
Торрент: Зарегистрирован [ 2020-03-31 10:42 ] · 121753811E099C2B2D6FB1125A606781552EAD6E

Скачать .torrent

Скачать

31 KB

Статус: проверено
Скачан: 0 раз
Размер: 5,94 GB  ·  Тип торрента
terms.php
Профиль [ЛС]
Показать сообщения:    

Текущее время: 06-Июл 17:40

Часовой пояс: UTC ± 0



Вы не можете начинать темы
Вы не можете отвечать на сообщения
Вы не можете редактировать свои сообщения
Вы не можете удалять свои сообщения
Вы не можете голосовать в опросах
Вы не можете прикреплять файлы к сообщениям
Вы можете скачивать файлы