Статистика раздачи
Размер:  5,07 GB   |    Зарегистрирован:  3 месяца 6 дней   |    Скачан:  0 раз
DL-List: Нет

Полного источника не было: Никогда

 
     
 
 

MAGNAT ®

Пол:
Мужской
Стаж:
1 год 3 месяца
Сообщений:
8778

Отверженные
Les Misérables
Страна: Великобритания, США
Производство: BBC
Жанр: драма, мелодрама, история
Продолжительность: ~01:00:00
Год выпуска: 2018-2019
Перевод:
- Профессиональный (многоголосый закадровый) - AB-Video по заказу Первого канала
Субтитры: отсутствуют-Режиссёр: Том Шенклэнд: Tom Shankland
В ролях: Доминик Уэст, Дэвид Ойелоуо, Лили Коллинз, Адиль Ахтар, Оливия Колман, Эрин Келлиман, Элли Бамбер, Джош О’Коннор-Описание: Картина, состоящая из шести серий, является британской адаптацией знаменитого романа Виктора Гюго. Ключевое событие в повествовании -Июньское восстание, произошедшее в Париже в 1832 году.
Жан Вальжан – осужденный за кражу хлеба беглый каторжник, на протяжении долгих лет скрывается от инспектора Жавера. Жавер, в свою очередь, свято верит в справедливость закона и считает делом чести поимку беглого вора. Параллельно с их противостоянием развивается трагичная история Фантины и ее незаконнорожденной дочери Козетты. После смерти Фантины Жан Вальжан, считающий себя в ответе за ее судьбу, забирает Козетту и заботится о ней как о родной дочери.
-Качество: HDTVRip
Формат: AVI
Видео: XviD, 720х360 (2,00:1), 25 fps, ~1500 kbps, ~0.230 bit/pixel
Аудио #1: [RUS] 48 kHz, AC3, 2 ch, 192 kbps AB-Video
Аудио #2: [ENG] 48 kHz, AC3, 2 ch, 192 kbps Original
Реклама: отсутствует-

Примечание

Первый канал вырезал заставки "Previously" из 2-3, 5-6 серий - на эти фрагменты вставлен перевод Cinema Tone.
Во второй серии отсуствует перевод AB-Video на отрывке 00:43:07-00:43:08 - вставлен перевод Cinema Tone.

HDTVRip vs. WEB-DLRip

HDTVRip ------------------------------------------------------- WEB-DLRip

Mediainfo

General
Complete name : H:\Раздачи\Les.Miserables.HDTVRip.MVO.AB-Video\Les.Miserables.S01E02.HDTVRip.MVO.Pervyi_kanal.avi
Format : AVI
Format/Info : Audio Video Interleave
File size : 808 MiB
Duration : 59 min 30 s
Overall bit rate : 1 898 kb/s
Writing application : VirtualDubMod 1.5.10.2 (build 2540/release)
Writing library : VirtualDubMod build 2540/release
Video
ID : 0
Format : MPEG-4 Visual
Format profile : Advanced Simple@L5
Format settings : BVOP2 / Custom Matrix
Format settings, BVOP : 2
Format settings, QPel : No
Format settings, GMC : No warppoints
Format settings, Matrix : Custom
Codec ID : XVID
Codec ID/Hint : XviD
Duration : 59 min 30 s
Bit rate : 1 500 kb/s
Width : 720 pixels
Height : 360 pixels
Display aspect ratio : 2.000
Frame rate : 25.000 FPS
Color space : YUV
Chroma subsampling : 4:2:0
Bit depth : 8 bits
Scan type : Progressive
Compression mode : Lossy
Bits/(Pixel*Frame) : 0.231
Stream size : 638 MiB (79%)
Writing library : XviD 73
Audio #1
ID : 1
Format : AC-3
Format/Info : Audio Coding 3
Commercial name : Dolby Digital
Codec ID : 2000
Duration : 59 min 30 s
Bit rate mode : Constant
Bit rate : 192 kb/s
Channel(s) : 2 channels
Channel layout : L R
Sampling rate : 48.0 kHz
Frame rate : 31.250 FPS (1536 SPF)
Bit depth : 16 bits
Compression mode : Lossy
Stream size : 81.7 MiB (10%)
Alignment : Split accross interleaves
Interleave, duration : 40 ms (1.00 video frame)
Interleave, preload duration : 500 ms
Service kind : Complete Main
Audio #2
ID : 2
Format : AC-3
Format/Info : Audio Coding 3
Commercial name : Dolby Digital
Codec ID : 2000
Duration : 59 min 30 s
Bit rate mode : Constant
Bit rate : 192 kb/s
Channel(s) : 2 channels
Channel layout : L R
Sampling rate : 48.0 kHz
Frame rate : 31.250 FPS (1536 SPF)
Bit depth : 16 bits
Compression mode : Lossy
Stream size : 81.7 MiB (10%)
Alignment : Split accross interleaves
Interleave, duration : 40 ms (1.00 video frame)
Interleave, preload duration : 500 ms
Service kind : Complete Main

Скриншоты

[cybertorrent.net].t13971.torrent 
Торрент: Зарегистрирован [ 2020-03-31 10:40 ] · 1C43BD7F3320B62935701DC00B6C69FFD784F2B9

Скачать .torrent

Скачать

26 KB

Статус: проверено
Скачан: 0 раз
Размер: 5,07 GB  ·  Тип торрента
terms.php
Профиль [ЛС]
Показать сообщения:    

Текущее время: 06-Июл 18:06

Часовой пояс: UTC ± 0



Вы не можете начинать темы
Вы не можете отвечать на сообщения
Вы не можете редактировать свои сообщения
Вы не можете удалять свои сообщения
Вы не можете голосовать в опросах
Вы не можете прикреплять файлы к сообщениям
Вы можете скачивать файлы