Статистика раздачи
Размер:  4,12 GB   |    Зарегистрирован:  3 месяца 6 дней   |    Скачан:  0 раз
DL-List: Нет

Полного источника не было: Никогда

 
     
 
 

MAGNAT ®

Пол:
Мужской
Стаж:
1 год 3 месяца
Сообщений:
8778

Венская кровь / Убийство по Фрейду / Vienna Blood
Год выпуска: 2019
Страна: Великобритания, Австрия
Жанр: драма, криминал
Продолжительность: 01:29:00
Перевод: Профессиональный (дублированный) True Dubbing Studio
Режиссёр: Умут Даг / Umut Dag, Роберт Дорнхельм / Robert Dornhelm
В ролях: Мэттью Бирд, Юрген Маурер, Амелия Баллмор, Джессика Де Гау, Джозеф Эллерс, Симон Хатцль, Конлет Хилл, Шарлин МакКенна, Оливер Штоковски, Рафаэль фон Бэрген
Описание: Блестящий молодой английский врач Макс Либерманн, обучающийся у знаменитого психоаналитика Зигмунда Фрейда. Макс предлагает свою помощь австрийскому детективу, инспектору Оскару Рейнхардту, в расследовании странного преступления, и вместе мужчины образуют противоречивую, оригинальную и, бесспорно, выдающуюся следственную группу.
Качество: HDTVRip
Формат: AVI
Видео: MPEG4, DivX 5, 704x352 (2.000), 25.000 fps, 1 791 Kbps (0.289 bit/pixel)
Аудио: AC-3, 48.0 KHz, 2 ch, 192 Kbps, CBR - русский
Аудио 2: AC-3, 48.0 KHz, 2 ch, 192 Kbps, CBR - английский
Субтитры: нет
Реклама:
нет

MediaInfo

Общее
Полное имя : I:\1x01 - The Last Seance (Последний сеанс).avi
Формат : AVI
Формат/Информация : Audio Video Interleave
Размер файла : 1,37 Гбайт
Продолжительность : 1 ч. 29 м.
Общий поток : 2190 Кбит/сек
Название фильма : Убийство по Фрейду (Венская кровь). Сезон 1 / Vienna Blood. Season 1 (2019)
Программа кодирования : VirtualDubMod 1.5.10.2 (build 2540/release)
Библиотека кодирования : VirtualDubMod build 2540/release
Авторское право : miha2154
Видео
Идентификатор : 0
Формат : MPEG-4 Visual
Профиль формата : Advanced Simple@L5
Настройки формата : BVOP1 / Custom Matrix
Параметр BVOP формата : 1
Параметр QPel формата : Нет
Параметр GMC формата : Без точки перехода
Параметр матрицы формата : Выборочная
Идентификатор кодека : DX50
Идентификатор кодека/Подсказка : DivX 5
Продолжительность : 1 ч. 29 м.
Битрейт : 1791 Кбит/сек
Ширина : 704 пикселя
Высота : 352 пикселя
Соотношение сторон : 2,000
Частота кадров : 25,000 кадров/сек
Цветовое пространство : YUV
Субдискретизация насыщенности : 4:2:0
Битовая глубина : 8 бит
Тип развёртки : Прогрессивная
Метод сжатия : С потерями
Бит/(Пиксели*Кадры) : 0.289
Размер потока : 1,12 Гбайт (82%)
Библиотека кодирования : XviD 65
Аудио #1
Идентификатор : 1
Формат : AC-3
Формат/Информация : Audio Coding 3
Коммерческое название : Dolby Digital
Идентификатор кодека : 2000
Продолжительность : 1 ч. 29 м.
Вид битрейта : Постоянный
Битрейт : 192 Кбит/сек
Каналы : 2 канала
Channel layout : L R
Частота : 48,0 КГц
Частота кадров : 31,250 кадров/сек (1536 SPF)
Битовая глубина : 16 бит
Метод сжатия : С потерями
Размер потока : 123 Мбайт (9%)
Выравнивание : Разделение по промежуткам
Продолжительность промежутка : 40 мс. (1,00 видеокадр)
Время предзагрузки промежутка : 500 мс.
Заголовок : Профессиональный (полное дублирование) Spike
ServiceKind/String : Complete Main
Аудио #2
Идентификатор : 2
Формат : AC-3
Формат/Информация : Audio Coding 3
Коммерческое название : Dolby Digital
Идентификатор кодека : 2000
Продолжительность : 1 ч. 29 м.
Вид битрейта : Постоянный
Битрейт : 192 Кбит/сек
Каналы : 2 канала
Channel layout : L R
Частота : 48,0 КГц
Частота кадров : 31,250 кадров/сек (1536 SPF)
Битовая глубина : 16 бит
Метод сжатия : С потерями
Размер потока : 123 Мбайт (9%)
Выравнивание : Разделение по промежуткам
Продолжительность промежутка : 40 мс. (1,00 видеокадр)
Время предзагрузки промежутка : 500 мс.
Заголовок : Английский
ServiceKind/String : Complete Main

Скриншоты


[cybertorrent.net].t13953.torrent 
Торрент: Зарегистрирован [ 2020-03-31 10:09 ] · 859AAD2E50DBE475D6A2E6832E28390275077FD5

Скачать .torrent

Скачать

21 KB

Статус: проверено
Скачан: 0 раз
Размер: 4,12 GB  ·  Тип торрента
terms.php
Профиль [ЛС]
Показать сообщения:    

Текущее время: 06-Июл 17:22

Часовой пояс: UTC ± 0



Вы не можете начинать темы
Вы не можете отвечать на сообщения
Вы не можете редактировать свои сообщения
Вы не можете удалять свои сообщения
Вы не можете голосовать в опросах
Вы не можете прикреплять файлы к сообщениям
Вы можете скачивать файлы