Статистика раздачи
Размер:  741 MB   |    Зарегистрирован:  8 месяцев   |    Скачан:  0 раз

Полного источника не было: Никогда

 
     
 
 

Гость ®

Пол:
Не указан

Тайна поющего острова Жанр: детский, приключения
Студия: Казахфильм
Продолжительность: 01:01:20
Год выпуска: 1980-Режиссёр: Серик Райбаев
В ролях: Тохтар Карсакбаев, Ермек Толепбаев, Данара Карманова, Олжас Мамутов-Описание: Приключенческий фильм по мотивам повести С. Жубатырова «Далекие острова» рассказывает о путешествии ребят на один из необитаемых островов Аральского моря. Они хотят найти здесь следы древнего города. Пережитые во время опасного путешествия трудности сплотили ребят, они смогли проверить цену крепкой дружбы.-Семпл: https://www.sendspace.com/file/nb4u6y-Качество: SATRip [Ел Арна] (эфир 23.06.2018)
Формат: AVI
Видео: XviD 65, 640x256, 25 fps, ~1488 kbps, 0.363 bit/pixel
Аудио: [RUS] AC3, 48 kHz, 2 ch, 192 kbps

Mediainfo

General
Complete name : F:\Тайна поющего острова (1980) [SATRip].avi
Format : AVI
Format/Info : Audio Video Interleave
File size : 741 MiB
Duration : 1 h 1 min
Overall bit rate : 1 690 kb/s
Writing application : VirtualDubMod 1.5.10.2 (build 2540/release)
Writing library : VirtualDubMod build 2540/release
Video
ID : 0
Format : MPEG-4 Visual
Format profile : Advanced Simple@L5
Format settings : BVOP1
Format settings, BVOP : 1
Format settings, QPel : No
Format settings, GMC : No warppoints
Format settings, Matrix : Default (H.263)
Codec ID : XVID
Codec ID/Hint : XviD
Duration : 1 h 1 min
Bit rate : 1 488 kb/s
Width : 640 pixels
Height : 256 pixels
Display aspect ratio : 2.500
Frame rate : 25.000 FPS
Color space : YUV
Chroma subsampling : 4:2:0
Bit depth : 8 bits
Scan type : Progressive
Compression mode : Lossy
Bits/(Pixel*Frame) : 0.363
Stream size : 653 MiB (88%)
Writing library : XviD 65
Audio
ID : 1
Format : AC-3
Format/Info : Audio Coding 3
Codec ID : 2000
Duration : 1 h 1 min
Bit rate mode : Constant
Bit rate : 192 kb/s
Channel(s) : 2 channels
Channel positions : Front: L R
Sampling rate : 48.0 kHz
Frame rate : 31.250 FPS (1536 SPF)
Bit depth : 16 bits
Compression mode : Lossy
Stream size : 84.2 MiB (11%)
Alignment : Split accross interleaves
Interleave, duration : 40 ms (1.00 video frame)
Interleave, preload duratio : 500 ms
Service kind : Complete Main

Скриншоты

[cybertorrent.net].t123.torrent 
Торрент: Зарегистрирован [ 2019-03-18 10:04 ] · 7A433321B99BC1AC8C2003E1E39FF97CB5368618

Скачать .torrent

Скачать

15 KB

Статус: проверено
Скачан: 0 раз
Размер: 741 MB
terms.php
Показать сообщения:    

Текущее время: 18-Ноя 11:41

Часовой пояс: UTC ± 0



Вы не можете начинать темы
Вы не можете отвечать на сообщения
Вы не можете редактировать свои сообщения
Вы не можете удалять свои сообщения
Вы не можете голосовать в опросах
Вы не можете прикреплять файлы к сообщениям
Вы можете скачивать файлы