Статистика раздачи
Размер:  2,04 GB   |    Зарегистрирован:  8 месяцев   |    Скачан:  0 раз

Полного источника не было: Никогда

 
     
 
 

Гость ®

Пол:
Не указан

Не покидай...- Страна: СССР
Жанр: музыкальный фильм, сказка
Год выпуска: 1989
Продолжительность: 01:09:56 + 01:10:16-Субтитры: русские (телетекст)-Режиссер: Леонид Нечаев
В ролях: Лидия Федосеева-Шукшина, Вячеслав Невинный, Игорь Красавин, Варвара Владимирова, Светлана Селезнёва, Регина Разума, Альберт Филозов, Артем Тынкасов, Елена Антонова, Владимир Ставицкий, Анатолий Рудаков, Юрий Багинян, Александр Денисов, Валентин Букин, Анатолий Голуб, Саша Занько, Вика Яблонская...-Описание: Король, королева и все королевство уже не в силах продолжать прежнее существование, поэтому должно произойти нечто, что изменит всю жизнь каждого жителя страны. И однажды это случается! Когда Король мечтает стать конюхом, а добрая, но избалованная принцесса уже просто извела всех своим эгоизмом, жизнь в королевстве начинает медленно разрушаться. И спасти ее может только чудо. Приход к власти жестокого канцлера серьезно меняет уклад жизни в королевстве, но одна-единственная находка на дне волшебного сундука уже на следующий день изменит жизнь каждого жителя этой страны.-Релиз: -Семпл: http://sendfile.su/1392204-Тип релиза: DVB (Канал "Культура")
Контейнер: TS
Видео: 720x576 (4:3) @ 786x576, 25.000 fps, AVC, ~1836 Kbps
Аудио: Русский, 48.0 KHz, MPEG-1 Audio layer 2, 2 ch, 192 Kbps

MediaInfo

General
ID : 1 (0x1)
Complete name : Не покидай... 1 серия 1989 Культура.ts
Format : MPEG-TS
File size : 1.09 GiB
Duration : 1 h 9 min
Overall bit rate mode : Variable
Overall bit rate : 2 222 kb/s
Video
ID : 205 (0xCD)
Menu ID : 1 (0x1)
Format : AVC
Format/Info : Advanced Video Codec
Format profile : High@L3
Format settings : CABAC / 4 Ref Frames
Format settings, CABAC : Yes
Format settings, RefFrames : 4 frames
Codec ID : 27
Duration : 1 h 9 min
Bit rate : 1 918 kb/s
Width : 720 pixels
Height : 576 pixels
Display aspect ratio : 4:3
Frame rate : 25.000 FPS
Standard : Component
Color space : YUV
Chroma subsampling : 4:2:0
Bit depth : 8 bits
Scan type : Interlaced
Scan type, store method : Separated fields
Scan order : Top Field First
Bits/(Pixel*Frame) : 0.185
Stream size : 959 MiB (86%)
Color range : Limited
Color primaries : BT.601 PAL
Transfer characteristics : BT.470 System B, BT.470 System G
Matrix coefficients : BT.470 System B, BT.470 System G
Audio
ID : 305 (0x131)
Menu ID : 1 (0x1)
Format : MPEG Audio
Format version : Version 1
Format profile : Layer 2
Codec ID : 3
Duration : 1 h 9 min
Bit rate mode : Constant
Bit rate : 192 kb/s
Channel(s) : 2 channels
Sampling rate : 48.0 kHz
Compression mode : Lossy
Delay relative to video : -40 ms
Stream size : 96.1 MiB (9%)
Language : Russian
Text
ID : 505 (0x1F9)-888
Menu ID : 1 (0x1)
Format : Teletext Subtitle
Language : Russian
Language, more info : For hearing impaired people-General
ID : 1 (0x1)
Complete name : Не покидай... 2 серия 1989 Культура.ts
Format : MPEG-TS
File size : 976 MiB
Duration : 1 h 10 min
Overall bit rate mode : Variable
Overall bit rate : 1 941 kb/s
Video
ID : 205 (0xCD)
Menu ID : 1 (0x1)
Format : AVC
Format/Info : Advanced Video Codec
Format profile : High@L3
Format settings : CABAC / 4 Ref Frames
Format settings, CABAC : Yes
Format settings, RefFrames : 4 frames
Codec ID : 27
Duration : 1 h 10 min
Bit rate : 1 651 kb/s
Width : 720 pixels
Height : 576 pixels
Display aspect ratio : 4:3
Frame rate : 25.000 FPS
Standard : Component
Color space : YUV
Chroma subsampling : 4:2:0
Bit depth : 8 bits
Scan type : Interlaced
Scan type, store method : Separated fields
Scan order : Top Field First
Bits/(Pixel*Frame) : 0.159
Stream size : 830 MiB (85%)
Color range : Limited
Color primaries : BT.601 PAL
Transfer characteristics : BT.470 System B, BT.470 System G
Matrix coefficients : BT.470 System B, BT.470 System G
Audio
ID : 305 (0x131)
Menu ID : 1 (0x1)
Format : MPEG Audio
Format version : Version 1
Format profile : Layer 2
Codec ID : 3
Duration : 1 h 10 min
Bit rate mode : Constant
Bit rate : 192 kb/s
Channel(s) : 2 channels
Sampling rate : 48.0 kHz
Compression mode : Lossy
Delay relative to video : -40 ms
Stream size : 96.5 MiB (10%)
Language : Russian
Text
ID : 505 (0x1F9)-888
Menu ID : 1 (0x1)
Format : Teletext Subtitle
Language : Russian
Language, more info : For hearing impaired people
[cybertorrent.net].t104.torrent 
Торрент: Зарегистрирован [ 2019-03-18 10:04 ] · F0B5127B03238DCB7017A73E493F952168A66D42

Скачать .torrent

Скачать

11 KB

Статус: проверено
Скачан: 0 раз
Размер: 2,04 GB
terms.php
Показать сообщения:    

Текущее время: 18-Ноя 11:41

Часовой пояс: UTC ± 0



Вы не можете начинать темы
Вы не можете отвечать на сообщения
Вы не можете редактировать свои сообщения
Вы не можете удалять свои сообщения
Вы не можете голосовать в опросах
Вы не можете прикреплять файлы к сообщениям
Вы можете скачивать файлы