Статистика раздачи
Размер:  4,9 GB   |    Зарегистрирован:  8 месяцев   |    Скачан:  0 раз

Полного источника не было: Никогда

 
     
 
 

Гость ®

Пол:
Не указан

Проданный смех
Жанр: Музыкальная сказка
Год выпуска: 1981
Продолжительность: 01:00:10 + 01:10:12
Режиссёр: Леонид Нечаев
В ролях: Павел Кадочников, Александр Галевский, Катин-Ярцев, Александр Продан, Евгения Григорьева, Игорь Дмитриев, Борислав Брондуков, Гасан Мамедов, Федор Никитин, Надежда Румянцева, Екатерина Васильева, Наталья Гундарева, Елена Морозова, Дмитрий Иосифов
Описание: Фильм повествует о том, как в обмен на невероятный дар, позволяющий выигрывать любое пари, мальчик Тим Таллер отдал свой смех.
Доп. информация: Запись потока *.ts со спутника Экспресс АМ6, 53° в.д., ремукс в *.mkv программой VideoReDo.
Качество видео: DVB
Формат видео: MKV
Видео: MPEG Video, 720x576 (4:3), 25,000 кадров/сек, 5 012 Кбит/сек
Аудио: MPEG Audio, 48,0 КГц, 256 Кбит/сек, 2 канала

MediaInfo

General
Unique ID : 4127873286999202010585371644394193124 (0x31AFFDDB9A1479C4CD4DAF3A8DBC0E4)
Complete name : D:\Torrent\ПРОДАННЫЙ СМЕХ\ПРОДАННЫЙ СМЕХ 1 (Kultura 53).mkv
Format : Matroska
Format version : Version 2
File size : 2.26 GiB
Duration : 1 h 0 min
Overall bit rate mode : Variable
Overall bit rate : 5 375 kb/s
Writing application : Lavf52.64.2
Writing library : Lavf52.64.2
Video
ID : 1
Format : MPEG Video
Format version : Version 2
Format profile : Main@Main
Format settings : CustomMatrix / BVOP
Format settings, BVOP : Yes
Format settings, Matrix : Custom
Format settings, GOP : M=3, N=15
Format settings, picture st : Frame
Codec ID : V_MPEG2
Codec ID/Info : MPEG 1 or 2 Video
Duration : 1 h 0 min
Bit rate mode : Variable
Bit rate : 5 012 kb/s
Maximum bit rate : 15.0 Mb/s
Width : 720 pixels
Height : 576 pixels
Display aspect ratio : 4:3
Original display aspect rat : 4:3
Frame rate mode : Constant
Frame rate : 25.000 FPS
Standard : PAL
Color space : YUV
Chroma subsampling : 4:2:0
Bit depth : 8 bits
Scan type : Interlaced
Scan order : Top Field First
Compression mode : Lossy
Bits/(Pixel*Frame) : 0.483
Stream size : 2.11 GiB (93%)
Default : Yes
Forced : No
Audio
ID : 2
Format : MPEG Audio
Format version : Version 1
Format profile : Layer 2
Codec ID : A_MPEG/L2
Codec ID/Hint : MP2
Duration : 1 h 0 min
Bit rate mode : Constant
Bit rate : 256 kb/s
Channel(s) : 2 channels
Sampling rate : 48.0 kHz
Compression mode : Lossy
Delay relative to video : 13 ms
Stream size : 110 MiB (5%)
Language : English
Default : Yes
Forced : No
General
Unique ID : 214673538596677302420039467407683712245 (0xA1809E9FBFFD8F61FBB4BEBC950174F5)
Complete name : D:\Torrent\ПРОДАННЫЙ СМЕХ\ПРОДАННЫЙ СМЕХ 2 (Kultura 53).mkv
Format : Matroska
Format version : Version 2
File size : 2.64 GiB
Duration : 1 h 10 min
Overall bit rate mode : Variable
Overall bit rate : 5 375 kb/s
Writing application : Lavf52.64.2
Writing library : Lavf52.64.2
Video
ID : 1
Format : MPEG Video
Format version : Version 2
Format profile : Main@Main
Format settings : CustomMatrix / BVOP
Format settings, BVOP : Yes
Format settings, Matrix : Custom
Format settings, GOP : M=3, N=15
Format settings, picture st : Frame
Codec ID : V_MPEG2
Codec ID/Info : MPEG 1 or 2 Video
Duration : 1 h 10 min
Bit rate mode : Variable
Bit rate : 5 012 kb/s
Maximum bit rate : 15.0 Mb/s
Width : 720 pixels
Height : 576 pixels
Display aspect ratio : 4:3
Original display aspect rat : 4:3
Frame rate mode : Constant
Frame rate : 25.000 FPS
Standard : PAL
Color space : YUV
Chroma subsampling : 4:2:0
Bit depth : 8 bits
Scan type : Interlaced
Scan order : Top Field First
Compression mode : Lossy
Bits/(Pixel*Frame) : 0.483
Stream size : 2.46 GiB (93%)
Default : Yes
Forced : No
Audio
ID : 2
Format : MPEG Audio
Format version : Version 1
Format profile : Layer 2
Codec ID : A_MPEG/L2
Codec ID/Hint : MP2
Duration : 1 h 10 min
Bit rate mode : Constant
Bit rate : 256 kb/s
Channel(s) : 2 channels
Sampling rate : 48.0 kHz
Compression mode : Lossy
Delay relative to video : 13 ms
Stream size : 129 MiB (5%)
Language : English
Default : Yes
Forced : No
[cybertorrent.net].t101.torrent 
Торрент: Зарегистрирован [ 2019-03-18 10:04 ] · 9A68E92815E5348EA2407459B1764F4953367173

Скачать .torrent

Скачать

25 KB

Статус: проверено
Скачан: 0 раз
Размер: 4,9 GB
terms.php
Показать сообщения:    

Текущее время: 18-Ноя 11:49

Часовой пояс: UTC ± 0



Вы не можете начинать темы
Вы не можете отвечать на сообщения
Вы не можете редактировать свои сообщения
Вы не можете удалять свои сообщения
Вы не можете голосовать в опросах
Вы не можете прикреплять файлы к сообщениям
Вы можете скачивать файлы